↑↓torrent.by
Поиск
Логин:  Регистрация
Пароль:

Отвязные дворняги / Strays (2023) BDRip-AVC от DoMiNo & селезень | D, A

download Скачать торрент-файл   magnet Магнитная ссылка Размер: 2.38 GB Добавлен: 2024-01-31 17:00
Пиры будут получены из сети DHT
Последний сидер был замечен 2024-02-05 16:04
Информация о фильме Название: Отвязные дворняги Оригинальное название: Strays Год выпуска: 2023 Жанр: Комедия, приключения Режиссер: Джош Гринбаум / Josh Greenbaum В ролях: Уилл Феррелл, Джейми Фокс, София Вергара, Айла Фишер, Харви Гильен, Джэми Деметриу, Тайлер Антониус, Рэндалл Пак, Уилл Форте, Джош Гад, Бретт Гельман, Роб Риггл, Хеди Насер, Али Асгар Шах, Габриэлла Гарсия О фильме: Пёс Рэджи обожал своего хозяина-алкоголика, хотя тот постоянно пытался избавиться от питомца. Очередная попытка удаётся, пёсик теряется, зато знакомится с компанией бродячих собак, которые объясняют наивному оптимисту, как жестоко поступал с ним хозяин. Теперь у Рэджи появляется новая цель — вернуться домой и откусить гадкому человеку мужское хозяйство. Выпущено: США, Universal Pictures, Gloria Sanchez Productions, Lord Miller, Rabbit Hole Productions (II), Universal Animation Studios, Picturestart Продолжительность: 01:33:07 Перевод 1: Дублированный | Официальный | Bravo Records Georgia Перевод 2: Дублированный (неофициальный) | HotVoice 41 18 + Перевод 3: Авторский (одноголосый, закадровый) | М. Яроцкий | 18 + Субтитры: Русские (Forced, Full), Aнглийские, французские, немецкие, испанские Файл Формат: Matroska Качество: BDRip-AVC Видео: 1024x554 at 23.976 fps, x264@L4.1, ~2381 kbps Аудио 1: AC3, 6 ch, ~384 kbps - | Русский | | Bravo Records Georgia Аудио 2: AC3, 6 ch, ~448 kbps - | Русский | | HotVoice 41 Аудио 3: AC3, 6 ch, ~448 kbps - | Русский | | М. Яроцкий Формат субтитров: softsub (SRT) ***Рип от: -=DoMiNo=-
[+] M/IGeneral Unique ID : 38512639746199547902975808462303240656 (0x1CF943BDA4676C1D326159B4CD9FA1D0) Complete name : R:Strays.2023.D.A.BDRip.x264.seleZen.mkv Format : Matroska Format version : Version 4 File size : 2.38 GiB Duration : 1 h 33 min Overall bit rate : 3 664 kb/s Frame rate : 23.976 FPS Movie name : Strays.2023.D.A.BDRip.x264.seleZen Encoded date : 2024-01-31 07:43:33 UTC Writing application : mkvmerge v82.0 ('I'm The President') 64-bit Writing library : libebml v1.4.5 + libmatroska v1.7.1 Cover : Yes Attachments : cover.jpg / small_cover.jpg Video ID : 1 Format : AVC Format/Info : Advanced Video Codec Format profile : High@L4.1 Format settings : CABAC / 12 Ref Frames Format settings, CABAC : Yes Format settings, Reference : 12 frames Codec ID : V_MPEG4/ISO/AVC Duration : 1 h 33 min Bit rate : 2 381 kb/s Width : 1 024 pixels Height : 554 pixels Display aspect ratio : 1.85:1 Frame rate mode : Constant Frame rate : 23.976 (24000/1001) FPS Color space : YUV Chroma subsampling : 4:2:0 Bit depth : 8 bits Scan type : Progressive Bits/(Pixel*Frame) : 0.175 Stream size : 1.55 GiB (65%) Title : -=DoMiNo=- Writing library : x264 core 164 r3107+58M ae98796 t_mod_New | by -=DoMiNo=- | X86_64] Encoding settings : cabac=1 / ref=12 / deblock=1:-2:-2 / analyse=0x3:0x133 / me=umh / subme=10 / psy=1 / fade_compensate=0.00 / psy_rd=1.05:0.03 / mixed_ref=1 / me_range=48 / chroma_me=1 / trellis=2 / 8x8dct=1 / cqm=0 / deadzone=21,11 / fast_pskip=0 / chroma_qp_offset=-3 / threads=17 / lookahead_threads=4 / sliced_threads=0 / nr=0 / decimate=0 / interlaced=0 / bluray_compat=0 / constrained_intra=0 / fgo=0 / bframes=14 / b_pyramid=2 / b_adapt=2 / b_bias=0 / direct=1 / weightb=1 / open_gop=0 / weightp=2 / keyint=240 / keyint_min=24 / scenecut=40 / intra_refresh=0 / rc_lookahead=60 / rc=crf / mbtree=0 / crf=18.0000 / qcomp=0.70 / qpmin=0:0:0 / qpmax=69:69:69 / qpstep=4 / vbv_maxrate=50000 / vbv_bufsize=62500 / crf_max=0.0 / nal_hrd=none / filler=0 / ip_ratio=1.35 / pb_ratio=1.25 / aq=3:0.90 / aq-sensitivity=10.00 / aq-factor=1.00:1.00:1.00:1.00 / aq2=0 / aq3=0 Language : English Default : Yes Forced : No Audio #1 ID : 2 Format : AC-3 Format/Info : Audio Coding 3 Commercial name : Dolby Digital Codec ID : A_AC3 Duration : 1 h 33 min Bit rate mode : Constant Bit rate : 384 kb/s Channel(s) : 6 channels Channel layout : L R C LFE Ls Rs Sampling rate : 48.0 kHz Frame rate : 31.250 FPS (1536 SPF) Compression mode : Lossy Stream size : 256 MiB (10%) Title : DUB -Bravo Records Georgia Language : Russian Service kind : Complete Main Default : Yes Forced : No Audio #2 ID : 3 Format : AC-3 Format/Info : Audio Coding 3 Commercial name : Dolby Digital Codec ID : A_AC3 Duration : 1 h 33 min Bit rate mode : Constant Bit rate : 448 kb/s Channel(s) : 6 channels Channel layout : L R C LFE Ls Rs Sampling rate : 48.0 kHz Frame rate : 31.250 FPS (1536 SPF) Compression mode : Lossy Stream size : 298 MiB (12%) Title : DUB -HotVoice 41 (18+) Language : Russian Service kind : Complete Main Default : No Forced : No Audio #3 ID : 4 Format : AC-3 Format/Info : Audio Coding 3 Commercial name : Dolby Digital Codec ID : A_AC3 Duration : 1 h 33 min Bit rate mode : Constant Bit rate : 448 kb/s Channel(s) : 6 channels Channel layout : L R C LFE Ls Rs Sampling rate : 48.0 kHz Frame rate : 31.250 FPS (1536 SPF) Compression mode : Lossy Stream size : 298 MiB (12%) Title : AVO 18+ Language : Russian Service kind : Complete Main Default : No Forced : No Text #1 ID : 5 Format : UTF-8 Codec ID : S_TEXT/UTF8 Codec ID/Info : UTF-8 Plain Text Duration : 1 h 22 min Bit rate : 0 b/s Frame rate : 0.002 FPS Count of elements : 9 Stream size : 525 Bytes (0%) Title : Forced Language : Russian Default : No Forced : No Text #2 ID : 6 Format : UTF-8 Codec ID : S_TEXT/UTF8 Codec ID/Info : UTF-8 Plain Text Duration : 1 h 28 min Bit rate : 190 b/s Frame rate : 0.359 FPS Count of elements : 1906 Stream size : 124 KiB (0%) Title : Full Language : Russian Default : No Forced : No Text #3 ID : 7 Format : UTF-8 Codec ID : S_TEXT/UTF8 Codec ID/Info : UTF-8 Plain Text Duration : 1 h 28 min Bit rate : 105 b/s Frame rate : 0.358 FPS Count of elements : 1899 Stream size : 68.1 KiB (0%) Title : Full Language : English Default : No Forced : No Text #4 ID : 8 Format : UTF-8 Codec ID : S_TEXT/UTF8 Codec ID/Info : UTF-8 Plain Text Duration : 1 h 28 min Bit rate : 114 b/s Frame rate : 0.382 FPS Count of elements : 2040 Stream size : 74.6 KiB (0%) Title : SDH Language : English Default : No Forced : No Text #5 ID : 9 Format : UTF-8 Codec ID : S_TEXT/UTF8 Codec ID/Info : UTF-8 Plain Text Duration : 1 h 27 min Bit rate : 117 b/s Frame rate : 0.470 FPS Count of elements : 2470 Stream size : 75.4 KiB (0%) Language : French Default : No Forced : No Text #6 ID : 10 Format : UTF-8 Codec ID : S_TEXT/UTF8 Codec ID/Info : UTF-8 Plain Text Duration : 1 h 32 min Bit rate : 92 b/s Frame rate : 0.314 FPS Count of elements : 1736 Stream size : 62.0 KiB (0%) Language : German Default : No Forced : No Text #7 ID : 11 Format : UTF-8 Codec ID : S_TEXT/UTF8 Codec ID/Info : UTF-8 Plain Text Duration : 1 h 27 min Bit rate : 96 b/s Frame rate : 0.330 FPS Count of elements : 1733 Stream size : 61.8 KiB (0%) Language : Spanish Default : No Forced : No Menu 00:00:00.000 : en:Chapter 01 00:03:38.718 : en:Chapter 02 00:08:04.484 : en:Chapter 03 00:14:03.843 : en:Chapter 04 00:18:26.355 : en:Chapter 05 00:21:53.395 : en:Chapter 06 00:26:39.639 : en:Chapter 07 00:28:41.845 : en:Chapter 08 00:34:50.713 : en:Chapter 09 00:37:32.583 : en:Chapter 10 00:43:48.959 : en:Chapter 11 00:49:27.756 : en:Chapter 12 00:52:56.882 : en:Chapter 13 00:56:34.140 : en:Chapter 14 01:02:59.817 : en:Chapter 15 01:07:18.909 : en:Chapter 16 01:10:37.775 : en:Chapter 17 01:13:10.302 : en:Chapter 18 01:22:04.502 : en:Chapter 19 01:26:11.249 : en:Chapter 20
Релиз: Присоединяйся к: Кликай на баннеры.

Всего файлов в раздаче: 1 
Strays.2023.D.A.BDRip.x264.seleZen.mkv2.38 GB

Похожие раздачи по запросу - Отвязные
2024-01-31 magnet Отвязные дворняги / Strays (2023) BDRip 1080p от DoMiNo & селезень | D, A 1К7.69 GB ↑ 0 ↓ 0
2023-12-31 magnet Отвязные дворняги / Strays (2023) HDRip от ExKinoRay | D 745.20 MB ↑ 0 ↓ 0
2023-11-17 magnet Отвязные дворняги / Strays (2023) BDRip-AVC от DoMiNo & селезень | D, A 2К2.42 GB ↑ 0 ↓ 0
2023-10-15 magnet Отвязные дворняги / Strays (2023) BDRip 1080p от DoMiNo & селезень | A | Яроцкий 7.15 GB ↑ 0 ↓ 0
2023-10-11 magnet Отвязные дворняги / Strays (2023) BDRip от MegaPeer | A | Яроцкий 1.46 GB ↑ 0 ↓ 0

Комментарии

ann_basina
не понимаю, почему Яроцкий с таким упорством продолжает озвучивать, он же никакущий, голос тихий не поставленный, бубнит там что то под нос, такое даже в 2000ые слушать было неприятно, когда мы не были избалованы озвучками В Хотвойс особого мата не услышал, поэтому видимо гляну настоящий дубляж, спасибо


Зарегистрируйтесь чтобы добавить комментарий
Торрент клиент
byTorrent - программа для загрузки торрент-файлов.

Скачать byTorrent.exe (1,5 МБ)

Скачать byTorrent.zip (0,6 МБ)

Поддержи torrent.by
российских рублей
(300 российских рублей это 4$)

Обратная связь rss

End game ©