↑↓torrent.by
Поиск
Логин:  Регистрация
Пароль:

Дом из песка и тумана / House of Sand and Fog (2003) WEB-DLRip-AVC от DoMiNo | D

download Скачать торрент-файл   magnet Магнитная ссылка Размер: 1.85 GB Добавлен: 2024-01-31 17:00
Пиры будут получены из сети DHT
Последний сидер был замечен 2024-02-04 18:44
Информация о фильме Название: Дом из песка и тумана Оригинальное название: House of Sand and Fog Год выхода: 2003 Жанр: драма, экранизация Режиссер: Вадим Перельман / Vadim Perelman В ролях: Дженнифер Коннелли, Бен Кингсли, Рон Элдард, Фрэнсис Фишер, Ким Диккенс, Шохре Агдашлу, Джонатан Ахдут, Нави Рават, Карлос Гомес, Киа Джэм, Бонита Фридериси О фильме: Захватывающая история американской мечты, обреченной на крах, рассказывает о двух людях, готовых на всё, лишь бы доказать свое право на владение домом. Речь идет всего-навсего о небольшом бунгало в Северной Калифорнии, но для Кэти Николо это последняя надежда на возвращение к жизни. В результате бюрократической ошибки ее выселяют, и Кэти оказывается на улице. Ей остается лишь беспомощно наблюдать, как дом продают на аукционе за мизерную цену. Страна: США Студия: Bisgrove Entertainment, Cobalt Media Group, DreamWorks SKG Продолжительность: 02:06:20 Перевод: Дублированный Файл Качество: WEB-DLRip-AVC Видео: High@L4.1, 1024x576 (16:9), ~1610 kbps, 23.976 fps Аудио: 48 kHz, AC3, 6 ch, 448 kbps Субтитры: Русские, английские Навигация по главам: есть ***Релиз от: -=DoMiNo=-
[+] M/Ix264 info: frame I:1277 Avg QP:15.85 size: 78438 x264 info: frame P:35904 Avg QP:19.19 size: 20480 x264 info: frame B:144572 Avg QP:21.80 size: 5025 x264 info: consecutive B-frames: 1.1% 1.0% 3.4% 23.6% 18.1% 37.7% 6.9% 4.7% 1.9% 0.6% 0.3% 0.3% 0.4% General Complete name : Дом из песка и тумана.2003.WEB-DLRIP_AVC..mkv Format : Matroska Format version : Version 4 / Version 2 File size : 1.85 GiB Duration : 2 h 6 min Overall bit rate : 2 100 kb/s Movie name : Дом из песка и тумана Attachments : poster.jpg COUNTRY : United States DATE : 2003-12-19 DIRECTOR : Vadim Perelman GENRE : драма ITUNEXTC : mpaa|R|400| MEDIA_TYPE : 9 ORIGINAL_TITLE : House of Sand and Fog PUBLISHER : DreamWorks SKG, Cobalt Media Group, Bisgrove Entertainment RATING : 7.10 WRITER : Shawn Lawrence Otto, Vadim Perelman Video ID : 1 Format : AVC Format/Info : Advanced Video Codec Format profile : High@L4.1 Format settings : CABAC / 10 Ref Frames Format settings, CABAC : Yes Format settings, ReFrames : 10 frames Codec ID : V_MPEG4/ISO/AVC Duration : 2 h 6 min Bit rate : 1 610 kb/s Width : 1 024 pixels Height : 576 pixels Display aspect ratio : 16:9 Frame rate mode : Constant Frame rate : 23.976 (24000/1001) FPS Color space : YUV Chroma subsampling : 4:2:0 Bit depth : 8 bits Scan type : Progressive Bits/(Pixel*Frame) : 0.114 Stream size : 1.42 GiB (77%) Title : RIP_BY_-=DoMiNo=- Writing library : x264 core 155 r2901M 7d0ff22 Encoding settings : cabac=1 / ref=10 / deblock=1:-3:-3 / analyse=0x3:0x133 / me=umh / subme=10 / psy=1 / psy_rd=1.00:0.10 / mixed_ref=1 / me_range=32 / chroma_me=1 / trellis=2 / 8x8dct=1 / cqm=0 / deadzone=21,11 / fast_pskip=1 / chroma_qp_offset=-3 / threads=6 / lookahead_threads=1 / sliced_threads=0 / nr=0 / decimate=1 / interlaced=0 / bluray_compat=0 / constrained_intra=0 / bframes=12 / b_pyramid=2 / b_adapt=2 / b_bias=0 / direct=3 / weightb=1 / open_gop=0 / weightp=2 / keyint=240 / keyint_min=24 / scenecut=40 / intra_refresh=0 / rc_lookahead=60 / rc=crf / mbtree=1 / crf=19.0 / qcomp=0.60 / qpmin=0 / qpmax=69 / qpstep=4 / ip_ratio=1.40 / aq=1:1.00 Language : English Default : Yes Forced : No Color range : Limited Color primaries : BT.709 Transfer characteristics : BT.709 Matrix coefficients : BT.709 Audio ID : 2 Format : AC-3 Format/Info : Audio Coding 3 Codec ID : A_AC3 Duration : 2 h 6 min Bit rate mode : Constant Bit rate : 448 kb/s Channel(s) : 6 channels Channel positions : Front: L C R, Side: L R, LFE Sampling rate : 48.0 kHz Frame rate : 31.250 FPS (1536 SPF) Bit depth : 16 bits Compression mode : Lossy Stream size : 405 MiB (21%) Title : DUB | R5 Language : Russian Service kind : Complete Main Default : Yes Forced : No Text #1 ID : 3 Format : UTF-8 Codec ID : S_TEXT/UTF8 Codec ID/Info : UTF-8 Plain Text Language : Russian Default : Yes Forced : No Text #2 ID : 4 Format : UTF-8 Codec ID : S_TEXT/UTF8 Codec ID/Info : UTF-8 Plain Text Language : English Default : No Forced : No Text #3 ID : 5 Format : UTF-8 Codec ID : S_TEXT/UTF8 Codec ID/Info : UTF-8 Plain Text Title : SDH Language : English Default : No Forced : No Menu 00:00:11.007 : :Chapter 1 00:05:10.333 : :Chapter 2 00:12:06.749 : :Chapter 3 00:17:00.626 : :Chapter 4 00:21:49.623 : :Chapter 5 00:26:22.354 : :Chapter 6 00:31:29.786 : :Chapter 7 00:37:38.488 : :Chapter 8 00:42:13.929 : :Chapter 9 00:47:46.845 : :Chapter 10 00:52:01.683 : :Chapter 11 00:57:32.430 : :Chapter 12 01:03:37.879 : :Chapter 13 01:09:04.288 : :Chapter 14 01:13:34.308 : :Chapter 15 01:18:43.909 : :Chapter 16 01:24:27.127 : :Chapter 17 01:30:36.913 : :Chapter 18 01:34:24.640 : :Chapter 19 01:41:44.914 : :Chapter 20 01:45:18.544 : :Chapter 21 01:50:01.034 : :Chapter 22 01:55:11.177 : :Chapter 23 02:02:48.259 : :Chapter 24 02:06:19.178 : :Chapter 25
[+] Скриншоты

Всего файлов в раздаче: 1 
Дом из песка и тумана.2003.WEB-DLRIP_AVC.[-=DoMiNo=-].mkv1.85 GB

Похожие раздачи по запросу - Дом
2024-02-05 magnet Дом тьмы / House of Darkness (2022) BDRemux 1080p | D, L2 17.01 GB ↑ 0 ↓ 0
2024-02-04 magnet Дом тьмы / House of Darkness (2022) BDRip 1080p от MegaPeer | D, L2 6.47 GB ↑ 0 ↓ 0
2024-02-04 magnet Дом тьмы / House of Darkness (2022) BDRip от MegaPeer | D 1.46 GB ↑ 0 ↓ 0
2024-02-04 magnet Дом тьмы / House of Darkness (2022) BDRip 720p от MegaPeer | D, L2 3.06 GB ↑ 0 ↓ 0
2024-02-04 magnet Дом тьмы / House of Darkness (2022) WEB-DLRip-AVC от DoMiNo | Pazl Voice 744.78 MB ↑ 0 ↓ 0
2024-02-03 magnet Ричард Матесон - Адский дом (2023) MP3 334.95 MB ↑ 0 ↓ 0
2024-02-01 magnet Дом из песка и тумана / House of Sand and Fog (2003) WEB-DLRip-AVC от DoMiNo | D 745.42 MB ↑ 0 ↓ 0

Комментарии


Зарегистрируйтесь чтобы добавить комментарий
Торрент клиент
byTorrent - программа для загрузки торрент-файлов.

Скачать byTorrent.exe (1,5 МБ)

Скачать byTorrent.zip (0,6 МБ)

Поддержи torrent.by
российских рублей
(300 российских рублей это 4$)

Обратная связь rss

End game ©