↑↓torrent.by
Поиск
Логин:  Регистрация
Пароль:

Андердоги / Аутсайдеры / The Underdoggs (2024) WEB-DL 1080p от New-Team | A | Яроцкий

download Скачать торрент-файл   magnet Магнитная ссылка Размер: 6.82 GB Добавлен: 2024-01-31 17:00
Пиры будут получены из сети DHT
Последний сидер был замечен 2024-02-17 22:59
Андердоги / The Underdoggs Год выпуска: 2024 Выпущено: США, Metro-Goldwyn-Mayer (MGM), Death Row Pictures, Panoramic Media Co, SMAC Entertainment, Khalabo Ink Society Жанр: комедия, спорт Режиссер: Чарльз Стоун III / Charles Stone III В ролях: Снуп Догг, Майк Эппс, Тика Самптер, Эндрю Шульц, Джордж Лопес, Джониган Бут, Рене Чендлер, Гэвин Коул, Кайла Девила, Нэнси Дэ Майо, Калеб Диксон, Дэрби Фарр, Елиас Фергюсон, Ловелл Гейтс, Александр Майкл Гордон, Джамир Гринвелл, Райлан Томас Хин, Луис Р. Эрнандес, Хизер Хаттон, Коул Кашдан, Джеймс Эндрю Кьенци, Симмс Мэй, Лелэнд МакГуайр, МакКалин, Шелле Перселл, Том Скотт II, Итан Тони, Стивен Ван Тифлин, Шамори Вашингтон О фильме: Фильм о бывшей звезде профессионального футбола Джейсене «Two Js» Дженнингсе, чья жизнь пошла под откос. Чтобы избежать заключения и восстановить свой имидж, герой соглашается тренировать неуправляемую детскую футбольную команду Продолжительность: 01:36:23 Перевод: Авторский (одноголосый, закадровый) | М. Яроцкий | 18 + Субтитры: Английские Раздача от: Автор релиза: JNS82. Формат: MKV Качество: WEB-DL 1080p | AMZN Видео: MPEG-4 AVC, 9096 Кбит/с, 1920x960 Аудио #1: AC3, 6 ch, 384 Кбит/с | RUS | Tnx.KinoPub Аудио #2: E-AC3, 6 ch, 640 Кбит/с | ENG |
[+] MediaInfoОбщее Уникальный идентификатор : 205901136880842320537939316801849967191 (0x9AE71DD39D1BF2E1FA9A9B3D0496C257) Полное имя : D:TorrentsThe.Underdoggs.2024.1080p.AMZN_от New-Team.mkv Формат : Matroska Версия формата : Version 4 Размер файла : 6,82 Гбайт Продолжительность : 1 ч. 36 м. Общий поток : 10,1 Мбит/сек Название фильма : The.Underdoggs.2024.1080p.AMZN_от New-Team Дата кодирования : UTC 2024-01-31 07:29:23 Программа кодирования : mkvmerge v79.0 ('Funeral Pyres') 64-bit Библиотека кодирования : libebml v1.4.4 + libmatroska v1.7.1 Видео Идентификатор : 1 Формат : AVC Формат/Информация : Advanced Video Codec Профиль формата : High@L4 Настройки формата : CABAC / 4 Ref Frames Параметр CABAC формата : Да Параметр RefFrames формата : 4 кадра Идентификатор кодека : V_MPEG4/ISO/AVC Продолжительность : 1 ч. 36 м. Вид битрейта : Постоянный Битрейт : 9 096 Кбит/сек Номинальный битрейт : 10 000 Кбит/сек Ширина : 1 920 пикселей Высота : 960 пикселей Соотношение сторон : 2,000 Режим частоты кадров : Постоянный Частота кадров : 23,976 (24000/1001) кадра/сек Цветовое пространство : YUV Субдискретизация насыщенности : 4:2:0 Битовая глубина : 8 бит Тип развёртки : Прогрессивная Бит/(Пиксели*Кадры) : 0.206 Размер потока : 6,12 Гбайт (90%) Default : Да Forced : Нет Цветовой диапазон : Limited Основные цвета : BT.709 Характеристики трансфера : BT.709 Коэффициенты матрицы : BT.709 Аудио #1 Идентификатор : 2 Формат : AC-3 Формат/Информация : Audio Coding 3 Коммерческое название : Dolby Digital Идентификатор кодека : A_AC3 Продолжительность : 1 ч. 36 м. Вид битрейта : Постоянный Битрейт : 384 Кбит/сек Каналы : 6 каналов Channel layout : L R C LFE Ls Rs Частота : 48,0 КГц Частота кадров : 31,250 кадров/сек (1536 SPF) Метод сжатия : С потерями Размер потока : 265 Мбайт (4%) Заголовок : AVO - Яроцкий | 18+ Язык : Russian Service kind : Complete Main Default : Да Forced : Нет Аудио #2 Идентификатор : 3 Формат : E-AC-3 Формат/Информация : Enhanced AC-3 Коммерческое название : Dolby Digital Plus Идентификатор кодека : A_EAC3 Продолжительность : 1 ч. 36 м. Вид битрейта : Постоянный Битрейт : 640 Кбит/сек Каналы : 6 каналов Channel layout : L R C LFE Ls Rs Частота : 48,0 КГц Частота кадров : 31,250 кадров/сек (1536 SPF) Метод сжатия : С потерями Размер потока : 441 Мбайт (6%) Заголовок : Original Язык : English Service kind : Complete Main Default : Нет Forced : Нет Текст #1 Идентификатор : 4 Формат : UTF-8 Идентификатор кодека : S_TEXT/UTF8 Идентификатор кодека/Информация : UTF-8 Plain Text Продолжительность : 1 ч. 28 м. Битрейт : 108 бит/сек Count of elements : 2308 Размер потока : 69,8 Кбайт (0%) Заголовок : Язык : English Default : Нет Forced : Нет Текст #2 Идентификатор : 5 Формат : UTF-8 Идентификатор кодека : S_TEXT/UTF8 Идентификатор кодека/Информация : UTF-8 Plain Text Продолжительность : 1 ч. 34 м. Битрейт : 114 бит/сек Count of elements : 2493 Размер потока : 79,3 Кбайт (0%) Заголовок : Язык : English Default : Нет Forced : Нет Меню 00:00:00.000 : en:Studio Logo 00:00:16.000 : en:Disclaimer 00:00:39.000 : en:Studio Logo 00:00:42.000 : en:Scene 4 00:00:55.000 : en:Scene 5 00:01:40.000 : en:Scene 6 00:02:45.000 : en:Scene 7 00:03:21.000 : en:Title Sequence 00:03:24.000 : en:Scene 9 00:03:32.000 : en:Scene 10 00:04:23.000 : en:Scene 11 00:06:00.000 : en:Scene 12 00:07:07.000 : en:Scene 13 00:11:24.000 : en:Scene 14 00:13:15.000 : en:Scene 15 00:13:51.000 : en:Scene 16 00:14:28.000 : en:Scene 17 00:15:01.000 : en:Scene 18 00:18:47.000 : en:Scene 19 00:21:26.000 : en:Scene 20 00:21:58.000 : en:Scene 21 00:23:11.000 : en:Scene 22 00:24:19.000 : en:Scene 23 00:24:59.000 : en:Scene 24 00:26:37.000 : en:Scene 25 00:27:16.000 : en:Scene 26 00:30:07.000 : en:Scene 27 00:30:53.000 : en:Scene 28 00:31:35.000 : en:Scene 29 00:34:41.000 : en:Scene 30 00:36:28.000 : en:Scene 31 00:37:08.000 : en:Scene 32 00:37:40.000 : en:Scene 33 00:38:51.000 : en:Scene 34 00:40:37.000 : en:Scene 35 00:41:45.000 : en:Scene 36 00:42:51.000 : en:Scene 37 00:43:59.000 : en:Scene 38 00:46:33.000 : en:Scene 39 00:47:45.000 : en:Scene 40 00:49:43.000 : en:Scene 41 00:50:23.000 : en:Scene 42 00:51:24.000 : en:Scene 43 00:52:00.000 : en:Scene 44 00:53:33.000 : en:Scene 45 00:54:43.000 : en:Scene 46 00:56:07.000 : en:Scene 47 00:56:45.000 : en:Scene 48 00:58:52.000 : en:Scene 49 01:00:03.000 : en:Scene 50 01:02:25.000 : en:Scene 51 01:02:59.000 : en:Scene 52 01:03:44.000 : en:Scene 53 01:04:21.000 : en:Scene 54 01:05:38.000 : en:Scene 55 01:06:26.000 : en:Scene 56 01:07:29.000 : en:Scene 57 01:08:23.000 : en:Scene 58 01:09:40.000 : en:Scene 59 01:10:17.000 : en:Scene 60 01:11:17.000 : en:Scene 61 01:11:50.000 : en:Scene 62 01:12:41.000 : en:Scene 63 01:14:03.000 : en:Scene 64 01:14:39.000 : en:Scene 65 01:15:17.000 : en:Scene 66 01:16:35.000 : en:Scene 67 01:17:20.000 : en:Scene 68 01:19:10.000 : en:Scene 69 01:19:51.000 : en:Scene 70 01:20:23.000 : en:Scene 71 01:21:29.000 : en:Scene 72 01:22:09.000 : en:Scene 73 01:22:56.000 : en:Scene 74 01:24:29.000 : en:Scene 75 01:25:00.000 : en:Scene 76 01:25:31.000 : en:Scene 77 01:27:00.000 : en:Scene 78 01:27:42.000 : en:Scene 79 01:28:42.000 : en:Scene 80 01:28:50.000 : en:Scene 81 01:29:04.000 : en:End Credits

Всего файлов в раздаче: 1 
The.Underdoggs.2024.1080p.AMZN_от New-Team.mkv6.82 GB

Похожие раздачи по запросу - Андердоги
2024-02-11 magnet Андердоги / Аутсайдеры / The Underdoggs (2024) WEB-DL 1080p от New-Team | P, A 7.07 GB ↑ 0 ↓ 0
2024-02-11 magnet Андердоги / Аутсайдеры / The Underdoggs (2024) WEB-DLRip-AVC от New-Team | P, A 1.91 GB ↑ 0 ↓ 0
2024-01-31 magnet Андердоги / Аутсайдеры / The Underdoggs (2024) WEB-DLRip от New-Team | A | Яроцкий 1.46 GB ↑ 0 ↓ 0
2024-01-31 magnet Андердоги / Аутсайдеры / The Underdoggs (2024) WEB-DLRip-AVC от DoMiNo & селезень | A | Яроцкий 1.68 GB ↑ 0 ↓ 0

Комментарии


Зарегистрируйтесь чтобы добавить комментарий
Торрент клиент
byTorrent - программа для загрузки торрент-файлов.

Скачать byTorrent.exe (1,5 МБ)

Скачать byTorrent.zip (0,6 МБ)

Поддержи torrent.by
российских рублей
(300 российских рублей это 4$)

Обратная связь rss

End game ©