↑↓torrent.by
Поиск
Логин:  Регистрация
Пароль:

Пчеловод / The Beekeeper (2024) WEB-DLRip-AVC от JNS82 | D | TS

download Скачать торрент-файл   magnet Магнитная ссылка Размер: 1.91 GB Раздают: 1 Качают: 0 Добавлен: 2024-01-31 17:00
Пиры будут получены из сети DHT
Последний сидер был замечен сегодня в 18:17
Пчеловод / The Beekeeper Год выпуска: 2024 Выпущено: Великобритания, США, Cedar Park Entertainment, Miramax Films Жанр: Боевик, триллер Режиссер: Дэвид Эйр / David Ayer В ролях: Джейсон Стэйтем, Эмми Рэйвер-Лэмпман, Бобби Надери, Джош Хатчерсон, Джереми Айронс, Дэвид Уиттс, Михаэль Эпп, Тейлор Джеймс, Филисия Рашад, Джемма Редгрейв О фильме: Адам Клэй живет в тихом пригороде, занимается разведением пчел и не распространяется о своей прошлой жизни. Пожилая соседка рада, что в их край приехал заинтересованный человек, улучшающий природу и экологию. Пасечник часто общается с милой миссис Паркер, которая однажды становится жертвой финансовых мошенников. Аферисты похищают деньги со всех счетов женщины, и после тяжелого удара пенсионерка сводит счеты с жизнью. Адам решает за нее отомстить. Продолжительность: 01:45:14 Перевод: Дублированный | TS Субтитры: Русские (full (Stirlooo 18+)) английские Автор релиза: JNS82. Формат: MKV Качество: WEB-DLRip-AVC | AMZN Видео: MPEG-4 AVC, 1953 Кбит/с, 1024x426 Аудио #1: AC3, 2 ch, 192 Кбит/с | RUS | Аудио #2: AC3, 6 ch, 448 Кбит/с | ENG |
[+] MediaInfoОбщее Уникальный идентификатор : 194835214568079302770370516432812936835 (0x9293E5BBBACC6B45461C008C93CA8E83) Полное имя : D:TorrentsThe.Beekeeper.2024.WEB-DLRip-AVC_от_JNS82.mkv Формат : Matroska Версия формата : Version 4 Размер файла : 1,91 Гбайт Продолжительность : 1 ч. 45 м. Общий поток : 2 593 Кбит/сек Название фильма : The.Beekeeper.2024.WEB-DLRip-AVC_от_JNS82 Дата кодирования : UTC 2024-01-31 11:43:22 Программа кодирования : mkvmerge v79.0 ('Funeral Pyres') 64-bit Библиотека кодирования : libebml v1.4.4 + libmatroska v1.7.1 Видео Идентификатор : 1 Формат : AVC Формат/Информация : Advanced Video Codec Профиль формата : High@L4.1 Настройки формата : CABAC / 12 Ref Frames Параметр CABAC формата : Да Параметр RefFrames формата : 12 кадров Идентификатор кодека : V_MPEG4/ISO/AVC Продолжительность : 1 ч. 45 м. Битрейт : 1 953 Кбит/сек Ширина : 1 024 пикселя Высота : 426 пикселей Соотношение сторон : 2,40:1 Режим частоты кадров : Постоянный Частота кадров : 23,976 (24000/1001) кадра/сек Цветовое пространство : YUV Субдискретизация насыщенности : 4:2:0 Битовая глубина : 8 бит Тип развёртки : Прогрессивная Бит/(Пиксели*Кадры) : 0.187 Размер потока : 1,43 Гбайт (75%) Библиотека кодирования : x264 core 164 r3156+57M NewTeam t_mod_New Настройки программы : cabac=1 / ref=12 / deblock=1:-2:-2 / analyse=0x3:0x133 / me=umh / subme=10 / psy=1 / fade_compensate=0.00 / psy_rd=1.03:0.05 / mixed_ref=1 / me_range=32 / chroma_me=1 / trellis=2 / 8x8dct=1 / cqm=0 / deadzone=21,11 / fast_pskip=0 / chroma_qp_offset=-3 / threads=13 / lookahead_threads=3 / sliced_threads=0 / nr=0 / decimate=0 / interlaced=0 / bluray_compat=0 / constrained_intra=0 / fgo=0 / bframes=12 / b_pyramid=2 / b_adapt=2 / b_bias=0 / direct=3 / weightb=1 / open_gop=0 / weightp=2 / keyint=250 / keyint_min=23 / scenecut=40 / intra_refresh=0 / rc_lookahead=40 / rc=2pass / mbtree=0 / bitrate=1953 / ratetol=1.0 / qcomp=0.60 / qpmin=0:0:0 / qpmax=69:69:69 / qpstep=4 / cplxblur=20.0 / qblur=0.5 / vbv_maxrate=50000 / vbv_bufsize=62500 / nal_hrd=none / filler=0 / ip_ratio=1.40 / pb_ratio=1.30 / aq=1:1.00 / aq-sensitivity=10.00 / aq-factor=1.00:1.00:1.00 / aq2=0 / aq3=0 Язык : English Default : Да Forced : Нет Аудио #1 Идентификатор : 2 Формат : AC-3 Формат/Информация : Audio Coding 3 Коммерческое название : Dolby Digital Идентификатор кодека : A_AC3 Продолжительность : 1 ч. 45 м. Вид битрейта : Постоянный Битрейт : 192 Кбит/сек Каналы : 2 канала Channel layout : L R Частота : 48,0 КГц Частота кадров : 31,250 кадров/сек (1536 SPF) Метод сжатия : С потерями Размер потока : 145 Мбайт (7%) Заголовок : DUB - TS Язык : Russian Service kind : Complete Main Default : Да Forced : Нет Аудио #2 Идентификатор : 3 Формат : AC-3 Формат/Информация : Audio Coding 3 Коммерческое название : Dolby Digital Идентификатор кодека : A_AC3 Продолжительность : 1 ч. 45 м. Вид битрейта : Постоянный Битрейт : 448 Кбит/сек Каналы : 6 каналов Channel layout : L R C LFE Ls Rs Частота : 48,0 КГц Частота кадров : 31,250 кадров/сек (1536 SPF) Метод сжатия : С потерями Размер потока : 337 Мбайт (17%) Заголовок : Original Язык : English Service kind : Complete Main Default : Нет Forced : Нет Текст #1 Идентификатор : 4 Формат : UTF-8 Идентификатор кодека : S_TEXT/UTF8 Идентификатор кодека/Информация : UTF-8 Plain Text Продолжительность : 1 ч. 40 м. Битрейт : 95 бит/сек Count of elements : 1378 Размер потока : 70,2 Кбайт (0%) Заголовок : ] Язык : Russian Default : Нет Forced : Нет Текст #2 Идентификатор : 5 Формат : UTF-8 Идентификатор кодека : S_TEXT/UTF8 Идентификатор кодека/Информация : UTF-8 Plain Text Продолжительность : 1 ч. 36 м. Битрейт : 63 бит/сек Count of elements : 1504 Размер потока : 44,5 Кбайт (0%) Заголовок : Язык : English Default : Нет Forced : Нет

Всего файлов в раздаче: 1 
The.Beekeeper.2024.WEB-DLRip-AVC_от_JNS82.mkv1.91 GB

Похожие раздачи по запросу - Пчеловод
2024-02-24 magnet Пчеловод / The Beekeeper (2024) WEB-DLRip-AVC от DoMiNo & селезень | P | TVShows, Jaskier 2.20 GB ↑ 0 ↓ 0
2024-02-24 magnet Пчеловод / The Beekeeper (2024) WEB-DLRip от DoMiNo & селезень | P | TVShows 1.46 GB ↑ 1 ↓ 0
2024-02-10 magnet Пчеловод / The Beekeeper (2024) WEB-DL 2160p | 4K | SDR | TVShows, Jaskier, ViruseProject 12.56 GB ↑ 0 ↓ 0
2024-02-09 magnet Пчеловод / The Beekeeper (2024) WEB-DL 1080p от селезень | P, P2 | TVShows, Jaskier, ViruseProject 7.93 GB ↑ 0 ↓ 0
2024-02-03 magnet Пчеловод / The Beekeeper (2024) WEB-DL 2160p | 4K | HDR10+ | Jaskier, ViruseProject 20.10 GB ↑ 0 ↓ 0
2024-02-03 magnet Пчеловод / The Beekeeper (2024) WEB-DL 2160p | 4K | HDR | Dolby Vision Profile 8 | Jaskier, ViruseProject 20.11 GB ↑ 0 ↓ 0
2024-02-03 magnet Пчеловод / The Beekeeper (2024) WEB-DLRip-AVC | КПК | P | Jaskier 525.52 MB ↑ 0 ↓ 0

Комментарии


Зарегистрируйтесь чтобы добавить комментарий
Торрент клиент
byTorrent - программа для загрузки торрент-файлов.

Скачать byTorrent.exe (1,5 МБ)

Скачать byTorrent.zip (0,6 МБ)

Поддержи torrent.by
российских рублей
(300 российских рублей это 4$)

Обратная связь rss

End game ©