↑↓torrent.by
Поиск
Логин:  Регистрация
Пароль:

Экспедиция со Стивом Бэкшеллом / Expedition with Steve Backshall [S01] (2019) WEB-DL 1080p | Pazl Voice

download Скачать торрент-файл   magnet Магнитная ссылка Размер: 35.92 GB Раздают: 1 Качают: 0 Добавлен: 2024-02-01 05:00
Пиры будут получены из сети DHT
Последний сидер был замечен сегодня в 17:33
Название: Экспедиция со Стивом Бэкшеллом Оригинальное название: Expedition with Steve Backshall Год выхода: 2019 Жанр: Документальный, приключения, путешествия, природа Режиссер: Али Мэй В ролях: Стив Бакшолл, Альдо Кэйн, Кэти Фрайзер, Тэмсин Гэй, Анна Плэйс, Кит Патридж, Ник Эллинсон, Либби Питер, Марк Шарман, Гильермо Де Анда и др. Описание сериала: Документальный сериал знакомит с британским натуралистом и исследователем Стивом Бэкшоллом, который вместе со съемочной командой отправляется в самые удаленные и еще неизученные уголки планеты, чтобы бросить вызов своей удаче и навыкам выживания в дикой природе. Его путешествия охватывают весь земной шар: непролазные джунгли Южной Америки, заснеженные леса России, каньоны и горные массивы Ближнего Востока, обледеневшие фьорды Гренландии, необитаемые тропические острова, знойная африканская саванна и многие другие места. Страна: Великобритания Студия: True To Nature, UKTV Продолжительность: ~00:50:00 Перевод: Любительский (двухголосый) Pazl Voice Субтитры: Русские (Forced, Full), английские (Full, SDH) Файл Формат: MKV Качество: WEB-DL (1080p) Видео: 1920x1080 (16:9), 25 fps, AVC (х264), High@L4, ~10 Mbps avg, 0.193 bit/pixel Аудио RUS: 48 kHz, AC3, 2/0 (L, R) ch, ~224 kbps avg Аудио ENG: 48 kHz, E-AC3, 2/0 (L, R) ch, ~224 kbps avg
[+] MediaInfoОбщее Уникальный идентификатор : 187878888283136832496417734516244984833 (0x8D58285E2092FAA82EFA299824F3B401) Полное имя : Expedition.with.Steve.Backshall.2019.S01E01.WEB-DL.1080p.AMZN.Pazl.Voice.mkv Формат : Matroska Версия формата : Version 4 Размер файла : 3, 43 Гбайт Продолжительность : 48 м. 25 с. Общий поток : 10, 2 Мбит/сек Частота кадров : 25, 000 кадров/сек Дата кодирования : 2023-12-31 02:34:01 UTC Программа кодирования : mkvmerge v68.0.0 ('The Curtain') 64-bit Библиотека кодирования : libebml v1.4.2 + libmatroska v1.6.4 Видео Идентификатор : 1 Формат : AVC Формат/Информация : Advanced Video Codec Профиль формата : High@L4 Настройки формата : CABAC / 4 Ref Frames Параметр CABAC формата : Да Параметр RefFrames формата : 4 кадра Идентификатор кодека : V_MPEG4/ISO/AVC Продолжительность : 48 м. 25 с. Вид битрейта : Постоянный Битрейт : 10 000 Кбит/сек Ширина : 1 920 пикселей Высота : 1 080 пикселей Соотношение сторон : 16:9 Режим частоты кадров : Постоянный Частота кадров : 25, 000 кадров/сек Цветовое пространство : YUV Субдискретизация насыщенности : 4:2:0 Битовая глубина : 8 бит Тип развёртки : Прогрессивная Бит/(Пиксели*Кадры) : 0.193 Размер потока : 3, 28 Гбайт (96%) Default : Да Forced : Нет Цветовой диапазон : Limited Основные цвета : BT.709 Характеристики трансфера : BT.709 Коэффициенты матрицы : BT.709 Аудио #1 Идентификатор : 2 Формат : AC-3 Формат/Информация : Audio Coding 3 Коммерческое название : Dolby Digital Идентификатор кодека : A_AC3 Продолжительность : 48 м. 25 с. Вид битрейта : Постоянный Битрейт : 224 Кбит/сек Каналы : 2 канала Channel layout : L R Частота : 48, 0 КГц Частота кадров : 31, 250 кадров/сек (1536 SPF) Метод сжатия : С потерями Размер потока : 77, 6 Мбайт (2%) Язык : Russian Default : Да Forced : Нет Аудио #2 Идентификатор : 3 Формат : E-AC-3 Формат/Информация : Enhanced AC-3 Коммерческое название : Dolby Digital Plus Идентификатор кодека : A_EAC3 Продолжительность : 48 м. 24 с. Вид битрейта : Постоянный Битрейт : 224 Кбит/сек Каналы : 2 канала Channel layout : L R Частота : 48, 0 КГц Частота кадров : 31, 250 кадров/сек (1536 SPF) Метод сжатия : С потерями Размер потока : 77, 6 Мбайт (2%) Язык : English (US) Default : Нет Forced : Нет Текст #1 Идентификатор : 4 Формат : UTF-8 Идентификатор кодека : S_TEXT/UTF8 Идентификатор кодека/Информация : UTF-8 Plain Text Продолжительность : 46 м. 32 с. Битрейт : 3 бит/сек Частота кадров : 0, 006 кадр/сек Count of elements : 16 Размер потока : 1, 06 Кбайт (0%) Заголовок : Forced Язык : Russian Default : Нет Forced : Нет Текст #2 Идентификатор : 5 Формат : UTF-8 Идентификатор кодека : S_TEXT/UTF8 Идентификатор кодека/Информация : UTF-8 Plain Text Продолжительность : 47 м. 43 с. Битрейт : 111 бит/сек Частота кадров : 0, 191 кадр/сек Count of elements : 547 Размер потока : 39, 0 Кбайт (0%) Язык : Russian Default : Нет Forced : Нет Текст #3 Идентификатор : 6 Формат : UTF-8 Идентификатор кодека : S_TEXT/UTF8 Идентификатор кодека/Информация : UTF-8 Plain Text Продолжительность : 47 м. 38 с. Битрейт : 70 бит/сек Частота кадров : 0, 236 кадр/сек Count of elements : 676 Размер потока : 24, 7 Кбайт (0%) Язык : English (US) Default : Нет Forced : Нет Текст #4 Идентификатор : 7 Формат : UTF-8 Идентификатор кодека : S_TEXT/UTF8 Идентификатор кодека/Информация : UTF-8 Plain Text Продолжительность : 47 м. 45 с. Битрейт : 73 бит/сек Частота кадров : 0, 251 кадр/сек Count of elements : 720 Размер потока : 25, 8 Кбайт (0%) Заголовок : SDH Язык : English (US) Default : Нет Forced : Нет
[+] Скриншоты

Всего файлов в раздаче: 10 
Expedition.with.Steve.Backshall.2019.S01E01.WEB-DL.1080p.AMZN.Pazl.Voice.mkv3.43 GB
Expedition.with.Steve.Backshall.2019.S01E02.WEB-DL.1080p.AMZN.Pazl.Voice.mkv3.59 GB
Expedition.with.Steve.Backshall.2019.S01E03.WEB-DL.1080p.AMZN.Pazl.Voice.mkv3.42 GB
Expedition.with.Steve.Backshall.2019.S01E04.WEB-DL.1080p.AMZN.Pazl.Voice.mkv3.59 GB
Expedition.with.Steve.Backshall.2019.S01E05.WEB-DL.1080p.AMZN.Pazl.Voice.mkv4.40 GB
Expedition.with.Steve.Backshall.2019.S01E06.WEB-DL.1080p.AMZN.Pazl.Voice.mkv3.57 GB
Expedition.with.Steve.Backshall.2019.S01E07.WEB-DL.1080p.AMZN.Pazl.Voice.mkv3.41 GB
Expedition.with.Steve.Backshall.2019.S01E08.WEB-DL.1080p.AMZN.Pazl.Voice.mkv3.49 GB
Expedition.with.Steve.Backshall.2019.S01E09.WEB-DL.1080p.AMZN.Pazl.Voice.mkv3.49 GB
Expedition.with.Steve.Backshall.2019.S01E10.WEB-DL.1080p.AMZN.Pazl.Voice.mkv3.53 GB

Похожие раздачи по запросу - Экспедиция
2024-01-01 magnet Экспедиция со Стивом Бэкшеллом / Expedition with Steve Backshall [01x01-02 из 10] (2019) WEB-DL 1080p | Pazl Voice 7.03 GB ↑ 0 ↓ 0

Комментарии

oxotnik007
Супер! Благодарю за деликатесы.) Теперь жду оставшиеся серии первого сезона и второй сезон.


Зарегистрируйтесь чтобы добавить комментарий
Торрент клиент
byTorrent - программа для загрузки торрент-файлов.

Скачать byTorrent.exe (1,5 МБ)

Скачать byTorrent.zip (0,6 МБ)

Поддержи torrent.by
российских рублей
(300 российских рублей это 4$)

Обратная связь rss

End game ©