↑↓torrent.by
Поиск
Логин:  Регистрация
Пароль:

Пчеловод / The Beekeeper (2024) WEB-DL 2160p | 4K | HDR | Dolby Vision Profile 8 | ViruseProject

download Скачать торрент-файл   magnet Магнитная ссылка Размер: 19.00 GB Добавлен: 2024-02-01 05:00
Пиры будут получены из сети DHT
Последний сидер был замечен вчера в 18:37
Страна: США, Великобритания Студия: Miramax Films, Cedar Park Entertainment Жанр: Боевик, триллер Год выпуска: 2024 Продолжительность: 01:45:14 Перевод: Любительский (двухголосый закадровый) ViruseProject (18+) Субтитры: Русские, английские Оригинальная аудиодорожка: Английский Режиссер: Дэвид Эйр В ролях: Джейсон Стэйтем, Эмми Рэйвер-Лэмпман, Бобби Надери, Джош Хатчерсон, Джереми Айронс, Дэвид Уиттс, Михаэль Эпп, Тейлор Джеймс, Филисия Рашад, Джемма Редгрейв Описание: Адам Клэй живет в тихом пригороде, занимается разведением пчел и не распространяется о своей прошлой жизни. Пожилая соседка рада, что в их край приехал заинтересованный человек, улучшающий природу и экологию. Пасечник часто общается с милой миссис Паркер, которая однажды становится жертвой финансовых мошенников. Аферисты похищают деньги со всех счетов женщины, и после тяжелого удара пенсионерка сводит счеты с жизнью. Адам решает за нее отомстить. Тип релиза: WEB-DL 2160p Контейнер: MKV Видео: MPEG-H/HEVC/H.265, 3832x1600, ~24.4 Mbps, 0.166 бит/(Пиксели*Кадры), 23,976 fps Аудио 1: AC3, 6 ch, 48.0 kHz, 640 Кбит/с - Русский DVO (ViruseProject - 18+) Аудио 2: E-AC3+Atmos, 6 ch, 48.0 kHz, 768 Кбит/с - Английский Субтитры: Русские (Full), английские (Full, SDH)
[+] Mediainfo Общее Уникальный идентификатор : 314308639895865951409688977843970247222 (0xEC75A462FE1B63E8C6BB6E012C1A0A36) Полное имя : F:The.Beekeeper.2024.x265.WEB-DL.2160p.HDR-DV.mkv Формат : Matroska Версия формата : Version 4 Размер файла : 19,0 Гбайт Продолжительность : 1 ч. 45 м. Общий поток : 25,8 Мбит/сек Дата кодирования : UTC 2024-01-31 19:38:15 Программа кодирования : mkvmerge v82.0 ('I'm The President') 64-bit Библиотека кодирования : libebml v1.4.5 + libmatroska v1.7.1 Видео Идентификатор : 1 Формат : HEVC Формат/Информация : High Efficiency Video Coding Профиль формата : Main 10@L5@High HDR format : Dolby Vision, Version 1.0, dvhe.08.06, BL+RPU, HDR10 compatible / SMPTE ST 2094 App 4, Version 1, HDR10+ Profile B compatible Идентификатор кодека : V_MPEGH/ISO/HEVC Продолжительность : 1 ч. 45 м. Битрейт : 24,4 Мбит/сек Ширина : 3 832 пикселя Высота : 1 600 пикселей Соотношение сторон : 2,40:1 Режим частоты кадров : Постоянный Частота кадров : 23,976 (24000/1001) кадра/сек Частота кадров в оригинале : 23,976 (23976/1000) кадра/сек Цветовое пространство : YUV Субдискретизация насыщенности : 4:2:0 (Type 2) Битовая глубина : 10 бит Бит/(Пиксели*Кадры) : 0.166 Размер потока : 18,0 Гбайт (95%) Язык : English Default : Да Forced : Да Цветовой диапазон : Limited Основные цвета : BT.2020 Характеристики трансфера : PQ Коэффициенты матрицы : BT.2020 non-constant Mastering display color primaries : BT.2020 Mastering display luminance : min: 0.0050 cd/m2, max: 1000 cd/m2 Maximum Content Light Level : 1274 cd/m2 Maximum Frame-Average Light Level : 710 cd/m2 Аудио #1 Идентификатор : 2 Формат : AC-3 Формат/Информация : Audio Coding 3 Коммерческое название : Dolby Digital Идентификатор кодека : A_AC3 Продолжительность : 1 ч. 45 м. Вид битрейта : Постоянный Битрейт : 640 Кбит/сек Каналы : 6 каналов Channel layout : L R C LFE Ls Rs Частота : 48,0 КГц Частота кадров : 31,250 кадров/сек (1536 SPF) Метод сжатия : С потерями Размер потока : 483 Мбайт (2%) Заголовок : DVO (ViruseProject) Язык : Russian Service kind : Complete Main Default : Да Forced : Да Аудио #2 Идентификатор : 3 Формат : E-AC-3 JOC Формат/Информация : Enhanced AC-3 with Joint Object Coding Коммерческое название : Dolby Digital Plus with Dolby Atmos Идентификатор кодека : A_EAC3 Продолжительность : 1 ч. 45 м. Вид битрейта : Постоянный Битрейт : 768 Кбит/сек Каналы : 6 каналов Channel layout : L R C LFE Ls Rs Частота : 48,0 КГц Частота кадров : 31,250 кадров/сек (1536 SPF) Метод сжатия : С потерями Размер потока : 580 Мбайт (3%) Язык : English Service kind : Complete Main Default : Нет Forced : Нет Complexity index : 16 Number of dynamic objects : 15 Bed channel count : 1 канал Bed channel configuration : LFE Текст #1 Идентификатор : 4 Формат : UTF-8 Идентификатор кодека : S_TEXT/UTF8 Идентификатор кодека/Информация : UTF-8 Plain Text Продолжительность : 1 ч. 40 м. Битрейт : 95 бит/сек Частота кадров : 0,229 кадр/сек Count of elements : 1378 Размер потока : 70,2 Кбайт (0%) Заголовок : stirlooo Язык : Russian Default : Нет Forced : Нет Текст #2 Идентификатор : 5 Формат : UTF-8 Идентификатор кодека : S_TEXT/UTF8 Идентификатор кодека/Информация : UTF-8 Plain Text Продолжительность : 1 ч. 36 м. Битрейт : 63 бит/сек Частота кадров : 0,261 кадр/сек Count of elements : 1507 Размер потока : 44,8 Кбайт (0%) Заголовок : Full Язык : English Default : Нет Forced : Нет Текст #3 Идентификатор : 6 Формат : UTF-8 Идентификатор кодека : S_TEXT/UTF8 Идентификатор кодека/Информация : UTF-8 Plain Text Продолжительность : 1 ч. 39 м. Битрейт : 73 бит/сек Частота кадров : 0,307 кадр/сек Count of elements : 1833 Размер потока : 53,5 Кбайт (0%) Заголовок : SDH Язык : English Default : Нет Forced : Нет Меню 00:00:00.000 : en:Chapter 01 00:05:23.031 : en:Chapter 02 00:14:32.706 : en:Chapter 03 00:20:07.957 : en:Chapter 04 00:26:58.868 : en:Chapter 05 00:33:43.690 : en:Chapter 06 00:41:40.041 : en:Chapter 07 00:46:14.482 : en:Chapter 08 00:54:19.342 : en:Chapter 09 01:00:39.597 : en:Chapter 10 01:06:34.786 : en:Chapter 11 01:12:51.955 : en:Chapter 12 01:18:01.348 : en:Chapter 13 01:25:17.575 : en:Chapter 14 01:34:04.811 : en:Chapter 15 01:40:26.067 : en:Chapter 16
[+] Скриншоты

Всего файлов в раздаче: 1 
The.Beekeeper.2024.x265.WEB-DL.2160p.HDR-DV.mkv19.00 GB

Похожие раздачи по запросу - Пчеловод
Вчера magnet Пчеловод / The Beekeeper (2024) WEB-DLRip-AVC от DoMiNo & селезень | P | TVShows, Jaskier 2.20 GB ↑ 0 ↓ 0
Вчера magnet Пчеловод / The Beekeeper (2024) WEB-DLRip от DoMiNo & селезень | P | TVShows 1.46 GB ↑ 0 ↓ 2
2024-02-10 magnet Пчеловод / The Beekeeper (2024) WEB-DL 2160p | 4K | SDR | TVShows, Jaskier, ViruseProject 12.56 GB ↑ 0 ↓ 0
2024-02-09 magnet Пчеловод / The Beekeeper (2024) WEB-DL 1080p от селезень | P, P2 | TVShows, Jaskier, ViruseProject 7.93 GB ↑ 1 ↓ 0
2024-02-03 magnet Пчеловод / The Beekeeper (2024) WEB-DL 2160p | 4K | HDR10+ | Jaskier, ViruseProject 20.10 GB ↑ 0 ↓ 0
2024-02-03 magnet Пчеловод / The Beekeeper (2024) WEB-DL 2160p | 4K | HDR | Dolby Vision Profile 8 | Jaskier, ViruseProject 20.11 GB ↑ 0 ↓ 0
2024-02-03 magnet Пчеловод / The Beekeeper (2024) WEB-DLRip-AVC | КПК | P | Jaskier 525.52 MB ↑ 0 ↓ 0

Комментарии


Зарегистрируйтесь чтобы добавить комментарий
Торрент клиент
byTorrent - программа для загрузки торрент-файлов.

Скачать byTorrent.exe (1,5 МБ)

Скачать byTorrent.zip (0,6 МБ)

Поддержи torrent.by
российских рублей
(300 российских рублей это 4$)

Обратная связь rss

End game ©