↑↓torrent.by
Поиск
Логин:  Регистрация
Пароль:

Пчеловод / The Beekeeper (2024) WEB-DLRip-AVC от DoMiNo & селезень | P2 | ViruseProject

download Скачать торрент-файл   magnet Магнитная ссылка Размер: 1.92 GB Добавлен: 2024-02-01 05:00
Пиры будут получены из сети DHT
Последний сидер был замечен вчера в 01:21
Информация о фильме Название: Пчеловод Оригинальное название: The Beekeeper Год выпуска: 2024 Жанр: Боевик, триллер Режиссер: Дэвид Эйр В ролях: Джейсон Стэйтем, Эмми Рэйвер-Лэмпман, Бобби Надери, Джош Хатчерсон, Джереми Айронс, Дэвид Уиттс, Михаэль Эпп, Тейлор Джеймс, Филисия Рашад, Джемма Редгрейв О фильме: Адам Клэй живет в тихом пригороде, занимается разведением пчел и не распространяется о своей прошлой жизни. Пожилая соседка рада, что в их край приехал заинтересованный человек, улучшающий природу и экологию. Пасечник часто общается с милой миссис Паркер, которая однажды становится жертвой финансовых мошенников. Аферисты похищают деньги со всех счетов женщины, и после тяжелого удара пенсионерка сводит счеты с жизнью. Адам решает за нее отомстить. Выпущено: Великобритания, США, Cedar Park Entertainment, Miramax Films Продолжительность: 01:45:14 Перевод: Профессиональный (двухголосый, закадровый) | ViruseProject 18 + Субтитры: Русские (full (Stirlooo 18+)) английские Файл Формат: Matroska Качество: WEB-DLRip-AVC Видео: 1024x426 at 23.976 fps, x264@L4.1, ~2161 kbps Аудио: AC3, 6 ch, ~448 kbps - | Русский | Формат субтитров: softsub (SRT) ***Рип от: -=DoMiNo=-
[+] M/Ix264 : frame I:1379 Avg QP:16.38 size: 63307 x264 : frame P:36525 Avg QP:18.06 size: 23728 x264 : frame B:113484 Avg QP:20.30 size: 6620 General Unique ID : 205972621102587751810241545331619491218 (0x9AF4E24556F73608229D28449D1D6D92) Complete name : O:The.Beekeeper.2024.AMZN.WEB-DLRip.x264.seleZen.mkv Format : Matroska Format version : Version 4 File size : 1.92 GiB Duration : 1 h 45 min Overall bit rate : 2 611 kb/s Frame rate : 23.976 FPS Movie name : The.Beekeeper.2024.AMZN.WEB-DLRip.x264.seleZen Encoded date : 2024-01-31 15:08:51 UTC Writing application : mkvmerge v82.0 ('I'm The President') 64-bit Writing library : libebml v1.4.5 + libmatroska v1.7.1 Cover : Yes Attachments : cover.jpg / small_cover.jpg Video ID : 1 Format : AVC Format/Info : Advanced Video Codec Format profile : High@L4.1 Format settings : CABAC / 14 Ref Frames Format settings, CABAC : Yes Format settings, Reference : 14 frames Codec ID : V_MPEG4/ISO/AVC Duration : 1 h 45 min Bit rate : 2 161 kb/s Width : 1 024 pixels Height : 426 pixels Display aspect ratio : 2.40:1 Frame rate mode : Constant Frame rate : 23.976 (24000/1001) FPS Color space : YUV Chroma subsampling : 4:2:0 Bit depth : 8 bits Scan type : Progressive Bits/(Pixel*Frame) : 0.207 Stream size : 1.59 GiB (83%) Title : -=DoMiNo=- Writing library : x264 core 164 r3173 -DoMiNo Encoding settings : cabac=1 / ref=14 / deblock=1:-2:-1 / analyse=0x3:0x133 / me=umh / subme=10 / psy=1 / psy_rd=1.00:0.15 / mixed_ref=1 / me_range=32 / chroma_me=1 / trellis=2 / 8x8dct=1 / cqm=0 / deadzone=21,11 / fast_pskip=0 / chroma_qp_offset=-3 / threads=17 / lookahead_threads=3 / sliced_threads=0 / nr=0 / decimate=0 / interlaced=0 / bluray_compat=0 / constrained_intra=0 / bframes=10 / b_pyramid=2 / b_adapt=2 / b_bias=0 / direct=1 / weightb=1 / open_gop=0 / weightp=2 / keyint=250 / keyint_min=23 / scenecut=40 / intra_refresh=0 / rc_lookahead=60 / rc=crf / mbtree=0 / crf=18.0 / qcomp=0.60 / qpmin=0 / qpmax=69 / qpstep=4 / vbv_maxrate=50000 / vbv_bufsize=62500 / crf_max=0.0 / nal_hrd=none / filler=0 / ip_ratio=1.35 / pb_ratio=1.30 / aq=1:0.90 Language : English Default : Yes Forced : No Color range : Limited Color primaries : BT.709 Transfer characteristics : BT.709 Matrix coefficients : BT.709 Audio ID : 2 Format : AC-3 Format/Info : Audio Coding 3 Commercial name : Dolby Digital Codec ID : A_AC3 Duration : 1 h 45 min Bit rate mode : Constant Bit rate : 448 kb/s Channel(s) : 6 channels Channel layout : L R C LFE Ls Rs Sampling rate : 48.0 kHz Frame rate : 31.250 FPS (1536 SPF) Compression mode : Lossy Stream size : 337 MiB (17%) Title : ViruseProject Language : Russian Service kind : Complete Main Default : Yes Forced : No Text #1 ID : 3 Format : UTF-8 Codec ID : S_TEXT/UTF8 Codec ID/Info : UTF-8 Plain Text Duration : 1 h 40 min Bit rate : 95 b/s Frame rate : 0.229 FPS Count of elements : 1378 Stream size : 70.2 KiB (0%) Title : Full -Stirlooo Language : Russian Default : No Forced : No Text #2 ID : 4 Format : UTF-8 Codec ID : S_TEXT/UTF8 Codec ID/Info : UTF-8 Plain Text Duration : 1 h 36 min Bit rate : 63 b/s Frame rate : 0.261 FPS Count of elements : 1504 Stream size : 44.5 KiB (0%) Language : English (US) Default : No Forced : No Text #3 ID : 5 Format : UTF-8 Codec ID : S_TEXT/UTF8 Codec ID/Info : UTF-8 Plain Text Duration : 1 h 39 min Bit rate : 73 b/s Frame rate : 0.307 FPS Count of elements : 1830 Stream size : 53.3 KiB (0%) Title : SDH Language : English (US) Default : No Forced : No Menu 00:00:00.000 : en:Глава 01 00:05:50.000 : en:Глава 02 00:11:40.000 : en:Глава 03 00:17:30.000 : en:Глава 04 00:23:20.000 : en:Глава 05 00:29:10.000 : en:Глава 06 00:35:00.000 : en:Глава 07 00:40:50.000 : en:Глава 08 00:46:40.000 : en:Глава 09 00:52:30.000 : en:Глава 10 00:58:20.000 : en:Глава 11 01:04:10.000 : en:Глава 12 01:10:00.000 : en:Глава 13 01:15:50.000 : en:Глава 14 01:21:40.000 : en:Глава 15 01:27:30.000 : en:Глава 16 01:33:20.000 : en:Глава 17 01:39:10.000 : en:Глава 18 01:45:00.000 : en:Глава 19
Релиз: Присоединяйся к: Кликай на баннеры.

Всего файлов в раздаче: 1 
The.Beekeeper.2024.AMZN.WEB-DLRip.x264.seleZen.mkv1.92 GB

Похожие раздачи по запросу - Пчеловод
2024-02-24 magnet Пчеловод / The Beekeeper (2024) WEB-DLRip-AVC от DoMiNo & селезень | P | TVShows, Jaskier 2.20 GB ↑ 0 ↓ 3
2024-02-24 magnet Пчеловод / The Beekeeper (2024) WEB-DLRip от DoMiNo & селезень | P | TVShows 1.46 GB ↑ 0 ↓ 0
2024-02-10 magnet Пчеловод / The Beekeeper (2024) WEB-DL 2160p | 4K | SDR | TVShows, Jaskier, ViruseProject 12.56 GB ↑ 1 ↓ 0
2024-02-09 magnet Пчеловод / The Beekeeper (2024) WEB-DL 1080p от селезень | P, P2 | TVShows, Jaskier, ViruseProject 7.93 GB ↑ 0 ↓ 1
2024-02-03 magnet Пчеловод / The Beekeeper (2024) WEB-DL 2160p | 4K | HDR10+ | Jaskier, ViruseProject 20.10 GB ↑ 0 ↓ 1
2024-02-03 magnet Пчеловод / The Beekeeper (2024) WEB-DL 2160p | 4K | HDR | Dolby Vision Profile 8 | Jaskier, ViruseProject 20.11 GB ↑ 0 ↓ 0
2024-02-03 magnet Пчеловод / The Beekeeper (2024) WEB-DLRip-AVC | КПК | P | Jaskier 525.52 MB ↑ 0 ↓ 0

Комментарии


Зарегистрируйтесь чтобы добавить комментарий
Торрент клиент
byTorrent - программа для загрузки торрент-файлов.

Скачать byTorrent.exe (1,5 МБ)

Скачать byTorrent.zip (0,6 МБ)

Поддержи torrent.by
российских рублей
(300 российских рублей это 4$)

Обратная связь rss

End game ©