↑↓torrent.by
Поиск
Логин:  Регистрация
Пароль:

Медиатор [03х01-05 из 08] (2024) WEB-DL 720p от ExKinoRay

download Скачать торрент-файл   magnet Магнитная ссылка Размер: 4.17 GB Добавлен: 2024-02-01 11:00
Пиры будут получены из сети DHT
Последний сидер был замечен 2024-02-05 17:45
Информация о фильме Название: Медиатор Год выхода: 2024 Жанр: Драма, триллер Режиссер: Артём Аксененко В ролях: Андрей Бурковский, Ирина Старшенбаум, Анна Каменкова, Софья Лебедева, Владислав Ценёв, Елизавета Гончаренко, Кристина Корбут, Элизабет-Александра Дамскер, Павел Савинков, Наташа Швец (II), Алексей Гришин, Кристина Ра, Ольга Родина, Виктория Клинкова О фильме:В третьем сезоне профессиональный переговорщик Андрей Павлов - резкий человек, инструментарием которого всегда были психологические провокации, - переосмысливает свои убеждения, оказавшись жертвой социальной травли. И пока Павлов пытается договориться с самим собой, за помощью к медиатору обращается следователь Женя. В городе пропадают люди, зверски убиты уже несколько девушек. Следы ведут к Степному Волку, возглавившему некую секту «бегунов». Страна: Россия Студия: START Studio, Профит Перевод: Не требуется Файл Формат: MKV Качество: WEB-DL 720p Видео: MPEG-4 AVC, ~ 2300 Кбит/с, 1280x536, 25 кадр/с Аудио: AC3, 2 ch, 192 Кбит/с RUS Продолжительность: 5 ~ 00:45:00 Язык: Русский Субтитры: Русские (SDH) Для слабослышащих Реклама: Отсутствует
[+] МИ General Unique ID : 233032371285524905910008559669160543674 (0xAF5066F5BAC511A1B4BD5794E4CD85BA) Complete name : G:Mediator.S03.2024.WEB-DL.720p.ExKinoRayMediator.S03.E01.2024.WEB-DL.720p.ExKinoRay.mkv Format : Matroska Format version : Version 2 File size : 923 MiB Duration : 55 min 12 s Overall bit rate : 2 336 kb/s Encoded date : UTC 2024-01-10 12:25:43 Writing application : mkvmerge v5.8.0 ('No Sleep / Pillow') built on Sep 2 2012 15:37:04 Writing library : libebml v1.2.3 + libmatroska v1.3.0 Video ID : 1 Format : AVC Format/Info : Advanced Video Codec Format profile : High@L3.1 Format settings : CABAC / 6 Ref Frames Format settings, CABAC : Yes Format settings, Reference frames : 6 frames Codec ID : V_MPEG4/ISO/AVC Duration : 55 min 12 s Bit rate : 2 098 kb/s Width : 1 280 pixels Height : 536 pixels Display aspect ratio : 2.40:1 Frame rate mode : Constant Frame rate : 25.000 FPS Color space : YUV Chroma subsampling : 4:2:0 Bit depth : 8 bits Scan type : Progressive Bits/(Pixel*Frame) : 0.122 Stream size : 829 MiB (90%) Writing library : x264 core 157 Encoding settings : cabac=1 / ref=6 / deblock=1:0:0 / analyse=0x3:0x133 / me=umh / subme=10 / psy=1 / psy_rd=1.00:0.00 / mixed_ref=1 / me_range=24 / chroma_me=1 / trellis=2 / 8x8dct=1 / cqm=0 / deadzone=21,11 / fast_pskip=1 / chroma_qp_offset=-2 / threads=17 / lookahead_threads=2 / sliced_threads=0 / nr=0 / decimate=1 / interlaced=0 / bluray_compat=0 / stitchable=1 / constrained_intra=0 / bframes=8 / b_pyramid=2 / b_adapt=2 / b_bias=0 / direct=3 / weightb=1 / open_gop=0 / weightp=2 / keyint=250 / keyint_min=25 / scenecut=40 / intra_refresh=0 / rc_lookahead=100 / rc=crf / mbtree=1 / crf=17.0 / qcomp=0.60 / qpmin=0 / qpmax=69 / qpstep=4 / ip_ratio=1.40 / aq=1:1.00 Language : Russian Default : Yes Forced : No Audio ID : 2 Format : AC-3 Format/Info : Audio Coding 3 Commercial name : Dolby Digital Codec ID : A_AC3 Duration : 55 min 12 s Bit rate mode : Constant Bit rate : 192 kb/s Channel(s) : 2 channels Channel layout : L R Sampling rate : 48.0 kHz Frame rate : 31.250 FPS (1536 SPF) Compression mode : Lossy Stream size : 75.8 MiB (8%) Language : Russian Service kind : Complete Main Default : Yes Forced : No Text ID : 3 Format : UTF-8 Codec ID : S_TEXT/UTF8 Codec ID/Info : UTF-8 Plain Text Language : Russian Default : No Forced : No
[+] Скриншоты
Релиз от:

Всего файлов в раздаче: 5 
Mediator.S03.E01.2024.WEB-DL.720p.ExKinoRay.mkv922.72 MB
Mediator.S03.E02.2024.WEB-DL.720p.ExKinoRay.mkv728.40 MB
Mediator.S03.E03.2024.WEB-DL.720p.ExKinoRay.mkv998.16 MB
Mediator.S03.E04.2024.WEB-DL.720p.ExKinoRay.mkv772.66 MB
Mediator.S03.E05.2024.WEB-DL.720p.ExKinoRay.mkv851.43 MB

Похожие раздачи по запросу - Медиатор
2024-02-25 magnet Медиатор [S03] (2024) WEB-DLRip-AVC от Generalfilm | КПК 1.76 GB ↑ 0 ↓ 0
2024-02-22 magnet Медиатор [S03] (2024) WEBRip 5.26 GB ↑ 3 ↓ 0
2024-02-22 magnet Медиатор [S03] (2024) WEB-DL 1080p от ExKinoRay 1К9.61 GB ↑ 0 ↓ 0
2024-02-22 magnet Медиатор [S03] (2024) WEB-DLRip-AVC от Files-x 1К4.98 GB ↑ 0 ↓ 0
2024-02-22 magnet Медиатор [S03] (2024) WEB-DL 720p от ExKinoRay 6.56 GB ↑ 0 ↓ 0
2024-02-15 magnet Медиатор [03х01-07 из 08] (2024) WEBRip 4.64 GB ↑ 0 ↓ 0
2024-02-15 magnet Медиатор [03х01-07 из 08] (2024) WEB-DL 1080p от ExKinoRay 8.49 GB ↑ 0 ↓ 0

Комментарии


Зарегистрируйтесь чтобы добавить комментарий
Торрент клиент
byTorrent - программа для загрузки торрент-файлов.

Скачать byTorrent.exe (1,5 МБ)

Скачать byTorrent.zip (0,6 МБ)

Поддержи torrent.by
российских рублей
(300 российских рублей это 4$)

Обратная связь rss

End game ©