↑↓torrent.by
Поиск
Логин:  Регистрация
Пароль:

Сент Айвз / Святой Айвс / St. Ives (1976) BDRip 1080p от MegaPeer | P, P1, A

download Скачать торрент-файл   magnet Магнитная ссылка Размер: 10.19 GB Добавлен: 2024-02-01 11:00
Пиры будут получены из сети DHT
Последний сидер был замечен 2024-02-07 13:25
«Charles Bronson is Ray St. Ives» Информация о фильме Название: Сент Айвз / Святой Айвс Оригинальное название: St. Ives Год выхода: 1976 Жанр: Боевик, триллер, драма, криминал, детектив Режиссер: Дж. Ли Томпсон В ролях: Чарльз Бронсон, Джон Хаусмен, Жаклин Биссет, Максимилиан Шелл, Гарри Гуардино, Харрис Юлин, Дэна Элкар, Майкл Лернер, Джордж Меммоли, Дик О’Нил О фильме: Журналист и писатель Бронсон становится пешкой в смертельной игре богача Хаусмена и его прекрасной сообщницы Биссет. Ловко манипулируя им, они подставляют его под убийство. Страна: США Студия: Warner Bros. Продолжительность: 01:34:00 Перевод: * Профессиональный (многоголосый, закадровый) | ТРК «Петербург 5-й канал» | * Профессиональный (одноголосый, закадровый) | * Авторский (одноголосый, закадровый) | М. Иванов | Файл Качество: BDRip 1080p Исходник: St. Ives 1976 1080p Blu-ray AVC DTS-HD MA 2.0-KIMI Формат: MKV Кодек: MPEG-4 AVC Видео: 1920x1036 (1.85:1), 24 fps, MPEG-4 AVC ~ 14.6 Mbps avg, 0.305 bit/pixel Аудио: AC3, 48 kHz, 2 ch, ~192.00 kbps avg | русский | MVO | 5-й канал | Аудио: AC3, 48 kHz, 2 ch, ~192.00 kbps avg | русский | VO | Аудио: AC3, 48 kHz, 2 ch, ~192.00 kbps avg | русский | AVO | М. Иванов | Аудио: AC3, 48 kHz, 2 ch, ~384.00 kbps avg | английский | Субтитры: Английские (SDH)
[+] Инфо-файлОбщее Уникальный идентификатор : 219520824591120971152015750602028041907 (0xA5262C466DD52F96AFB27242AB2146B3) Полное имя : St.Ives.1976.1080p.BluRay.DD.2.0.x264-MegaPeer.mkv Формат : Matroska Версия формата : Version 4 Размер файла : 10,2 Гбайт Продолжительность : 1 ч. 34 м. Общий поток : 15,5 Мбит/сек Частота кадров : 24,000 кадра/сек Название фильма : Сент Айвз / Святой Айвс / St. Ives (1976) от stillet@MegaPeer Дата кодирования : 2024-01-31 16:11:30 UTC Программа кодирования : mkvmerge v15.0.0 ('Duel with the Devil') 64-bit Библиотека кодирования : libebml v1.3.5 + libmatroska v1.4.5 Обложка : Yes Attachments : cover.jpg Видео Идентификатор : 1 Формат : AVC Формат/Информация : Advanced Video Codec Профиль формата : High@L4.1 Настройки формата : CABAC / 4 Ref Frames Параметр CABAC формата : Да Параметр RefFrames формата : 4 кадра Идентификатор кодека : V_MPEG4/ISO/AVC Продолжительность : 1 ч. 33 м. Битрейт : 14,6 Мбит/сек Ширина : 1 920 пикселей Высота : 1 036 пикселей Соотношение сторон : 1,85:1 Режим частоты кадров : Постоянный Частота кадров : 24,000 кадра/сек Цветовое пространство : YUV Субдискретизация насыщенности : 4:2:0 Битовая глубина : 8 бит Тип развёртки : Прогрессивная Бит/(Пиксели*Кадры) : 0.305 Размер потока : 9,55 Гбайт (94%) Библиотека кодирования : x264 core 164 r3156+57M stillet t_mod_New Настройки программы : cabac=1 / ref=4 / deblock=1:-3:-3 / analyse=0x3:0x113 / me=umh / subme=10 / psy=1 / fade_compensate=0.00 / psy_rd=1.03:0.02 / mixed_ref=1 / me_range=32 / chroma_me=1 / trellis=2 / 8x8dct=1 / cqm=0 / deadzone=21,11 / fast_pskip=0 / chroma_qp_offset=-3 / threads=12 / lookahead_threads=3 / sliced_threads=0 / nr=0 / decimate=0 / interlaced=0 / bluray_compat=0 / constrained_intra=0 / fgo=0 / bframes=11 / b_pyramid=2 / b_adapt=2 / b_bias=0 / direct=3 / weightb=1 / open_gop=0 / weightp=2 / keyint=240 / keyint_min=24 / scenecut=40 / intra_refresh=0 / rc_lookahead=40 / rc=2pass / mbtree=0 / bitrate=14555 / ratetol=1.0 / qcomp=0.60 / qpmin=0:0:0 / qpmax=69:69:69 / qpstep=4 / cplxblur=20.0 / qblur=0.5 / vbv_maxrate=50000 / vbv_bufsize=62500 / nal_hrd=none / filler=0 / ip_ratio=1.40 / pb_ratio=1.30 / aq=1:1.10 / aq-sensitivity=10.00 / aq-factor=1.00:1.00:1.00 / aq2=0 / aq3=0 Язык : English Default : Да Forced : Нет Аудио #1 Идентификатор : 2 Формат : AC-3 Формат/Информация : Audio Coding 3 Коммерческое название : Dolby Digital Идентификатор кодека : A_AC3 Продолжительность : 1 ч. 34 м. Вид битрейта : Постоянный Битрейт : 192 Кбит/сек Каналы : 2 канала Channel layout : L R Частота : 48,0 КГц Частота кадров : 31,250 кадров/сек (1536 SPF) Метод сжатия : С потерями Размер потока : 129 Мбайт (1%) Заголовок : MVO | ТРК «Петербург 5-й канал» Язык : Russian Service kind : Complete Main Default : Да Forced : Да Аудио #2 Идентификатор : 3 Формат : AC-3 Формат/Информация : Audio Coding 3 Коммерческое название : Dolby Digital Идентификатор кодека : A_AC3 Продолжительность : 1 ч. 34 м. Вид битрейта : Постоянный Битрейт : 192 Кбит/сек Каналы : 2 канала Channel layout : L R Частота : 48,0 КГц Частота кадров : 31,250 кадров/сек (1536 SPF) Метод сжатия : С потерями Размер потока : 129 Мбайт (1%) Заголовок : VO Язык : Russian Service kind : Complete Main Default : Нет Forced : Нет Аудио #3 Идентификатор : 4 Формат : AC-3 Формат/Информация : Audio Coding 3 Коммерческое название : Dolby Digital Идентификатор кодека : A_AC3 Продолжительность : 1 ч. 34 м. Вид битрейта : Постоянный Битрейт : 192 Кбит/сек Каналы : 2 канала Channel layout : L R Частота : 48,0 КГц Частота кадров : 31,250 кадров/сек (1536 SPF) Метод сжатия : С потерями Размер потока : 129 Мбайт (1%) Заголовок : AVO | Михаил Иванов Язык : Russian Service kind : Complete Main Default : Нет Forced : Нет Аудио #4 Идентификатор : 5 Формат : AC-3 Формат/Информация : Audio Coding 3 Коммерческое название : Dolby Digital Идентификатор кодека : A_AC3 Продолжительность : 1 ч. 34 м. Вид битрейта : Постоянный Битрейт : 384 Кбит/сек Каналы : 2 канала Channel layout : L R Частота : 48,0 КГц Частота кадров : 31,250 кадров/сек (1536 SPF) Метод сжатия : С потерями Размер потока : 258 Мбайт (2%) Язык : English Service kind : Complete Main Default : Нет Forced : Нет Текст Идентификатор : 6 Формат : UTF-8 Идентификатор кодека : S_TEXT/UTF8 Идентификатор кодека/Информация : UTF-8 Plain Text Продолжительность : 1 ч. 33 м. Битрейт : 55 бит/сек Частота кадров : 0,250 кадр/сек Count of elements : 1402 Размер потока : 38,3 Кбайт (0%) Заголовок : SDH Язык : English Default : Нет Forced : Нет Меню 00:00:00.000 : Chapter 01 00:09:42.500 : Chapter 02 00:16:38.000 : Chapter 03 00:22:16.625 : Chapter 04 00:30:25.417 : Chapter 05 00:39:12.833 : Chapter 06 00:45:55.250 : Chapter 07 00:54:47.583 : Chapter 08 01:00:51.750 : Chapter 09 01:06:45.917 : Chapter 10 01:12:38.458 : Chapter 11 01:21:24.500 : Chapter 12
Релиз:

Всего файлов в раздаче: 1 
St.Ives.1976.1080p.BluRay.DD.2.0.x264-MegaPeer.mkv10.19 GB

Похожие раздачи по запросу - Сент
2024-02-01 magnet Сент Айвз / Святой Айвс / St. Ives (1976) BDRip от MegaPeer | P, P1 1.46 GB ↑ 0 ↓ 0

Комментарии


Зарегистрируйтесь чтобы добавить комментарий
Торрент клиент
byTorrent - программа для загрузки торрент-файлов.

Скачать byTorrent.exe (1,5 МБ)

Скачать byTorrent.zip (0,6 МБ)

Поддержи torrent.by
российских рублей
(300 российских рублей это 4$)

Обратная связь rss

End game ©