↑↓torrent.by
Поиск
Логин:  Регистрация
Пароль:

Иные [01x01-03 из 06] (2023) WEBRip

download Скачать торрент-файл   magnet Магнитная ссылка Размер: 2.24 GB Добавлен: 2024-02-01 11:00
Пиры будут получены из сети DHT
Последний сидер был замечен 2024-02-23 00:17
Информация о фильме Оригинальное название: Иные Год выпуска: 2023 Жанр: Фэнтези, приключения Выпущено: Россия, Лунапарк, Плюс Студия Режиссер: Владимир Ракша В ролях: Ирина Мартыненко, Илья Маланин, Вольфганг Черни, Алексей Серебряков, Линда Лапиньш, Николай Фоменко, Евгения Симонова, Кирилл Нагиев, Денис Ткачев, Игорь Усачев О фильме: Молодой следователь Лихолетов берётся за расследование необычного происшествия в центре города, причиной которого, как будто, стала хрупкая Аня. Неведомая сила остановила столкновение трамвая и автомобиля, но от нее пострадали десятки людей. Лихолетов уверен, что девушка причастна к произошедшему и наделена особыми способностями. Одновременно об Анне узнает могущественный и загадочный иностранец Нойманн, который уже давно ищет подобных себе одаренных уникумов по всей Европе. Их роковая встреча может привести к мировой катастрофе или стать началом великой истории любви. Продолжительность: ~00:52:00 Язык: Русский Файл Формат: AVI Качество: WEBRip Видео: XviD, ~ 1650 Кбит/с, 720x304 Аудио: AC3, 6 ch, 448 Кбит/с Субтитры: Русские (Full, SDH)
[+] MIGeneral Complete name : W:Inye.S01.WEB-DLRip.DenSBKInye.S01.E01.WEB-DLRip.DenSBK.avi Format : AVI Format/Info : Audio Video Interleave File size : 796 MiB Duration : 52 min 43 s Overall bit rate : 2 110 kb/s Writing application : VirtualDubMod 1.5.10.3 | www.virtualdub-fr.org || (build 2550/release) Writing library : VirtualDubMod build 2550/release Video ID : 0 Format : MPEG-4 Visual Format profile : Advanced Simple@L5 Format settings : BVOP1 / Custom Matrix Format settings, BVOP : 1 Format settings, QPel : No Format settings, GMC : No warppoints Format settings, Matrix : Custom Codec ID : XVID Codec ID/Hint : XviD Duration : 52 min 43 s Bit rate : 1 652 kb/s Width : 720 pixels Height : 304 pixels Display aspect ratio : 2.35:1 Frame rate : 25.000 FPS Color space : YUV Chroma subsampling : 4:2:0 Bit depth : 8 bits Scan type : Progressive Compression mode : Lossy Bits/(Pixel*Frame) : 0.302 Stream size : 623 MiB (78%) Writing library : XviD 73 Audio ID : 1 Format : AC-3 Format/Info : Audio Coding 3 Codec ID : 2000 Duration : 52 min 43 s Bit rate mode : Constant Bit rate : 448 kb/s Channel(s) : 6 channels Channel positions : Front: L C R, Side: L R, LFE Sampling rate : 48.0 kHz Frame rate : 31.250 FPS (1536 SPF) Bit depth : 16 bits Compression mode : Lossy Stream size : 169 MiB (21%) Alignment : Split accross interleaves Interleave, duration : 40 ms (1.00 video frame) Interleave, preload duratio : 500 ms Service kind : Complete Main
[+] Скриншоты

Всего файлов в раздаче: 9 
Inye.S01.E01.WEB-DLRip.DenSBK.FULL.srt39.36 kB
Inye.S01.E01.WEB-DLRip.DenSBK.SDH.srt50.07 kB
Inye.S01.E01.WEB-DLRip.DenSBK.avi771.51 MB
Inye.S01.E02.WEB-DLRip.DenSBK.FULL.srt43.04 kB
Inye.S01.E02.WEB-DLRip.DenSBK.SDH.srt51.80 kB
Inye.S01.E02.WEB-DLRip.DenSBK.avi784.74 MB
Inye.S01.E03.WEB-DLRip.DenSBK.FULL.srt33.78 kB
Inye.S01.E03.WEB-DLRip.DenSBK.SDH.srt41.47 kB
Inye.S01.E03.WEB-DLRip.DenSBK.avi738.01 MB

Похожие раздачи по запросу - Иные
2024-02-25 magnet Иные [S01] (2023) WEBRip-AVC от Generalfilm | КПК 1К1.39 GB ↑ 0 ↓ 0
2024-02-23 magnet Иные [S01] (2023) WEBRip-HEVC 720p от ExKinoRay 1К9.92 GB ↑ 0 ↓ 0
2024-02-23 magnet Иные [S01] (2023) WEBRip 1080p от ExKinoRay 15.00 GB ↑ 1 ↓ 0
2024-02-22 magnet Иные [S01] (2023) WEBRip-AVC от Files-х 1К5.51 GB ↑ 0 ↓ 0
2024-02-22 magnet Иные [S01] (2023) WEBRip 1К4.49 GB ↑ 0 ↓ 0
2024-02-22 magnet Иные [S01] (2023) WEBRip-HEVC 2160p | 4K | SDR 26.04 GB ↑ 0 ↓ 0
2024-02-15 magnet Иные [01-05 из 06] (2023) WEBRip-AVC от Files-х 4.58 GB ↑ 0 ↓ 0

Комментарии


Зарегистрируйтесь чтобы добавить комментарий
Торрент клиент
byTorrent - программа для загрузки торрент-файлов.

Скачать byTorrent.exe (1,5 МБ)

Скачать byTorrent.zip (0,6 МБ)

Поддержи torrent.by
российских рублей
(300 российских рублей это 4$)

Обратная связь rss

End game ©