↑↓torrent.by
Поиск
Логин:  Регистрация
Пароль:

Крайне опасен / Wanted Man (2024) WEB-DL 1080p от ELEKTRI4KA | D

download Скачать торрент-файл   magnet Магнитная ссылка Размер: 4.50 GB Добавлен: 2024-02-01 17:00
Пиры будут получены из сети DHT
Последний сидер был замечен 2024-02-13 22:18
Информация о фильме Название: Крайне опасен / Особо опасный человек Оригинальное название: Wanted Man Год выпуска: 2024 Жанр: боевик, триллер Режиссер: Дольф Лундгрен В ролях: Дольф Лундгрен, Кристина Вилла, Келси Грэммер, Майкл Паре, Роджер Кросс, Аарон МакФерсон, Рокко Рейс, Джеймс Джозеф Пулидо, Даньела Сото Вель. О фильме: Офицер полиции получает задание найти и защитить девушку, ставшую свидетельницей перестрелки с наркокартелем, в которой погибли несколько агентов Управления по борьбе с наркотиками. И без того непростая ситуация осложняется, когда офицер выясняет, что за атакой на самом деле стояли спецслужбы. Выпущено: США / Wonder Street, Millennium Media, Davis Film Продолжительность: 01:25:19 Озвучивание: Дублированное | Официальное Файл Формат: MKV Качество: WEB-DL 1080p | AMZN Видео: MPEG-4 AVC, 6520 Кбит/с, 1920x800 Аудио: Russian: AC3, 384 Kb/s (6 ch), English: E-AC3, 640 Kb/s (6 ch) Субтитры: Russian (Full 18+), English Дополнительно: Нет Релиз группы: &  | Мы в Telegram:
[+] MediaInfo:Complete name: Krayne.opasen.2024.AMZN.WEB-DL.1080p.ELEKTRI4KA.UNIONGANG.mkv Format: Matroska Format version: Version 4 File size: 4.50 GiB Duration: 1 h 25 min Overall bit rate: 7 547 kb/s Movie name: Krayne.opasen.2024.AMZN.WEB-DL.1080p.ELEKTRI4KA.UNIONGANG. Encoded date: UTC 2024-01-31 16:06:52 Writing application: mkvmerge v8.3.0 ('Over the Horizon') 64bit Writing library: libebml v1.3.1 + libmatroska v1.4.2 Video ID: 1 Format: AVC Format/Info: Advanced Video Codec Format profile: High@L4 Format settings: CABAC / 4 Ref Frames Format settings, CABAC: Yes Format settings, Reference frames: 4 frames Codec ID: V_MPEG4/ISO/AVC Duration: 1 h 25 min Bit rate mode: Constant Bit rate: 6 520 kb/s Nominal bit rate: 10 000 kb/s Width: 1 920 pixels Height: 800 pixels Display aspect ratio: 2.40:1 Frame rate mode: Constant Frame rate: 23.976 (24000/1001) FPS Color space: YUV Chroma subsampling: 4:2:0 Bit depth: 8 bits Scan type: Progressive Bits/(Pixel*Frame): 0.177 Stream size: 3.89 GiB (86%) Language: English Default: Yes Forced: No Color range: Limited Color primaries: BT.709 Transfer characteristics: BT.709 Matrix coefficients: BT.709 Audio #1 ID: 2 Format: AC-3 Format/Info: Audio Coding 3 Commercial name: Dolby Digital Codec ID: A_AC3 Duration: 1 h 25 min Bit rate mode: Constant Bit rate: 384 kb/s Channel(s): 6 channels Channel layout: L R C LFE Ls Rs Sampling rate: 48.0 kHz Frame rate: 31.250 FPS (1536 SPF) Compression mode: Lossy Stream size: 234 MiB (5%) Title: DUB Language: Russian Service kind: Complete Main Default: Yes Forced: Yes Audio #2 ID: 3 Format: E-AC-3 Format/Info: Enhanced AC-3 Commercial name: Dolby Digital Plus Codec ID: A_EAC3 Duration: 1 h 25 min Bit rate mode: Constant Bit rate: 640 kb/s Channel(s): 6 channels Channel layout: L R C LFE Ls Rs Sampling rate: 48.0 kHz Frame rate: 31.250 FPS (1536 SPF) Compression mode: Lossy Stream size: 391 MiB (8%) Title: Original Language: English Service kind: Complete Main Default: No Forced: No Text #1 ID: 4 Format: UTF-8 Codec ID: S_TEXT/UTF8 Codec ID/Info: UTF-8 Plain Text Duration: 1 h 21 min Bit rate: 82 b/s Count of elements: 1267 Stream size: 49.0 KiB (0%) Title: Full 18+ (ViruseProject) Language: Russian Default: No Forced: No Text #2 ID: 5 Format: UTF-8 Codec ID: S_TEXT/UTF8 Codec ID/Info: UTF-8 Plain Text Duration: 11 min 30 s Bit rate: 12 b/s Count of elements: 41 Stream size: 1.01 KiB (0%) Language: English Default: No Forced: No Text #3 ID: 6 Format: UTF-8 Codec ID: S_TEXT/UTF8 Codec ID/Info: UTF-8 Plain Text Duration: 1 h 21 min Bit rate: 56 b/s Count of elements: 1298 Stream size: 33.7 KiB (0%) Language: English Default: No Forced: No Text #4 ID: 7 Format: UTF-8 Codec ID: S_TEXT/UTF8 Codec ID/Info: UTF-8 Plain Text Duration: 1 h 24 min Bit rate: 59 b/s Count of elements: 1455 Stream size: 37.0 KiB (0%) Title: SDH Language: English Default: No Forced: No
[+] Скриншоты

Всего файлов в раздаче: 1 
Krayne.opasen.2024.AMZN.WEB-DL.1080p.ELEKTRI4KA.UNIONGANG.mkv4.50 GB

Похожие раздачи по запросу - Крайне
2024-02-10 magnet Крайне опасен / Wanted Man (2024) HDRip от ExKinoRay | D 747.55 MB ↑ 0 ↓ 0
2024-02-09 magnet Крайне опасен / Особо опасный человек / Wanted Man (2024) BDRip 720p от DoMiNo & селезень | D 2.81 GB ↑ 0 ↓ 0
2024-02-09 magnet Крайне опасен / Особо опасный человек / Wanted Man (2024) BDRip-AVC от DoMiNo & селезень | D, P2 2К1.61 GB ↑ 0 ↓ 0
2024-02-09 magnet Крайне опасен / Wanted Man (2024) BDRip 1080p от MegaPeer | D, P2 6.54 GB ↑ 0 ↓ 0
2024-02-09 magnet Крайне опасен / Wanted Man (2024) BDRip 720p от MegaPeer | D, P2 3.29 GB ↑ 0 ↓ 0
2024-02-09 magnet Крайне опасен / Wanted Man (2024) BDRip от MegaPeer | D 1.46 GB ↑ 0 ↓ 0
2024-02-02 magnet Крайне опасен / Особо опасный человек / Wanted Man (2024) WEB-DL 1080p от селезень | D 3.27 GB ↑ 0 ↓ 0

Комментарии


Зарегистрируйтесь чтобы добавить комментарий
Торрент клиент
byTorrent - программа для загрузки торрент-файлов.

Скачать byTorrent.exe (1,5 МБ)

Скачать byTorrent.zip (0,6 МБ)

Поддержи torrent.by
российских рублей
(300 российских рублей это 4$)

Обратная связь rss

End game ©