↑↓torrent.by
Поиск
Логин:  Регистрация
Пароль:

Под прикрытием / Inside Man (2023) WEB-DL 1080p от ELEKTRI4KA | D

download Скачать торрент-файл   magnet Магнитная ссылка Размер: 6.36 GB Добавлен: 2024-02-02 05:00
Пиры будут получены из сети DHT
Последний сидер был замечен 2024-02-04 14:29
Информация о фильме Название: Под прикрытием Оригинальное название: Inside Man Год выхода: 2023 Жанр: триллер, драма, криминал Режиссер: Дэнни А. Абекейзер В ролях: Эмиль Хирш, Люси Хейл, Джейк Каннавале, Эшли Грин, Дэнни А. Абекейзер, Бо Дитл, Винсент Лареска, Грег Финли, Кайл Стефански, Роберт Дави, Джеймс Руссо, Джереми Люк, Антье Утгор, Эмили Левин, Сид Розенберг О фильме: Жизнь полицейского Бобби Белуччи рушится после того, как он узнает, что у его жены роман. Избив другого мужчину, будучи брошенным женой и пониженным в должности, Бобби решает изменить ситуацию и доказать своей жене и шефу, что он достоин прощения. Ему предоставляется возможность работать под прикрытием и уничтожить самого безжалостного убийцу мафии. Но цена прощения может оказаться выше, чем Бобби может себе позволить. Выпущено: США / Wild7 Films, 2B Films Продолжительность: 01:31:34 Озвучивание: Дублированное | OKKO Файл Формат: MKV Качество: WEB-DL 1080p | AMZN Видео: MPEG-4 AVC, 8532 Кбит/с, 1920x800 Аудио: Russian: AC3, 384 Kb/s (6 ch) / E-AC3, 384 Kb/s (6 ch), English: E-AC3, 640 Kb/s (6 ch) Субтитры: English Дополнительно: Нет Релиз группы: &  | Мы в Telegram:
[+] MediaInfo:Complete name : Pod.prikryitiem.2023.AMZN.WEB-DL.1080p.ELEKTRI4KA.UNIONGANG.mkv Format : Matroska Format version : Version 4 File size : 6.36 GiB Duration : 1 h 31 min Overall bit rate : 9 943 kb/s Movie name : Pod.prikryitiem.2023.AMZN.WEB-DL.1080p.ELEKTRI4KA.UNIONGANG. Encoded date : UTC 2024-02-01 12:05:31 Writing application : mkvmerge v8.3.0 ('Over the Horizon') 64bit Writing library : libebml v1.3.1 + libmatroska v1.4.2 Video ID : 1 Format : AVC Format/Info : Advanced Video Codec Format profile : High@L4 Format settings : CABAC / 4 Ref Frames Format settings, CABAC : Yes Format settings, Reference frames : 4 frames Codec ID : V_MPEG4/ISO/AVC Duration : 1 h 31 min Bit rate mode : Constant Bit rate : 8 532 kb/s Nominal bit rate : 10 000 kb/s Width : 1 920 pixels Height : 800 pixels Display aspect ratio : 2.40:1 Frame rate mode : Constant Frame rate : 23.976 (24000/1001) FPS Color space : YUV Chroma subsampling : 4:2:0 Bit depth : 8 bits Scan type : Progressive Bits/(Pixel*Frame) : 0.232 Stream size : 5.46 GiB (86%) Language : English Default : Yes Forced : No Color range : Limited Color primaries : BT.709 Transfer characteristics : BT.709 Matrix coefficients : BT.709 Audio #1 ID : 2 Format : AC-3 Format/Info : Audio Coding 3 Commercial name : Dolby Digital Codec ID : A_AC3 Duration : 1 h 31 min Bit rate mode : Constant Bit rate : 384 kb/s Channel(s) : 6 channels Channel layout : L R C LFE Ls Rs Sampling rate : 48.0 kHz Frame rate : 31.250 FPS (1536 SPF) Compression mode : Lossy Stream size : 251 MiB (4%) Title : DUB AC3 Language : Russian Service kind : Complete Main Default : Yes Forced : Yes Audio #2 ID : 3 Format : E-AC-3 Format/Info : Enhanced AC-3 Commercial name : Dolby Digital Plus Codec ID : A_EAC3 Duration : 1 h 31 min Bit rate mode : Constant Bit rate : 384 kb/s Channel(s) : 6 channels Channel layout : L R C LFE Ls Rs Sampling rate : 48.0 kHz Frame rate : 31.250 FPS (1536 SPF) Compression mode : Lossy Stream size : 251 MiB (4%) Title : DUB EAC3 Language : Russian Service kind : Complete Main Default : No Forced : No Audio #3 ID : 4 Format : E-AC-3 Format/Info : Enhanced AC-3 Commercial name : Dolby Digital Plus Codec ID : A_EAC3 Duration : 1 h 31 min Bit rate mode : Constant Bit rate : 640 kb/s Channel(s) : 6 channels Channel layout : L R C LFE Ls Rs Sampling rate : 48.0 kHz Frame rate : 31.250 FPS (1536 SPF) Compression mode : Lossy Stream size : 419 MiB (6%) Title : Original Language : English Service kind : Complete Main Default : No Forced : No Text #1 ID : 5 Format : UTF-8 Codec ID : S_TEXT/UTF8 Codec ID/Info : UTF-8 Plain Text Duration : 1 h 26 min Bit rate : 80 b/s Count of elements : 1419 Stream size : 51.2 KiB (0%) Language : English Default : No Forced : No Text #2 ID : 6 Format : UTF-8 Codec ID : S_TEXT/UTF8 Codec ID/Info : UTF-8 Plain Text Duration : 1 h 26 min Bit rate : 83 b/s Count of elements : 1463 Stream size : 52.7 KiB (0%) Title : SDH Language : English Default : No Forced : No
[+] Скриншоты

Всего файлов в раздаче: 1 
Pod.prikryitiem.2023.AMZN.WEB-DL.1080p.ELEKTRI4KA.UNIONGANG.mkv6.36 GB

Похожие раздачи по запросу - Под
2024-03-02 magnet Свадьба под прикрытием / Undercover Bridesmaid (2012) BDRip 720p от HD-КИНОЗАЛ | P 3.80 GB ↑ 0 ↓ 0
2024-02-03 magnet Под прикрытием / Inside Man (2023) WEB-DLRip от ExKinoRay | D | Локализованная версия 747.22 MB ↑ 0 ↓ 0
2024-02-02 magnet Под прикрытием / Inside Man (2023) WEB-DL 1080p от New-Team | D 6.15 GB ↑ 0 ↓ 0
2024-02-02 magnet Под прикрытием / Inside Man (2023) WEB-DLRip от MegaPeer | D 1.46 GB ↑ 0 ↓ 0
2024-02-02 magnet Под прикрытием / Inside Man (2023) WEB-DLRip-AVC от DoMiNo & селезень | D 1.41 GB ↑ 0 ↓ 0
2024-02-02 magnet Под прикрытием / Inside Man (2023) WEB-DL 1080p от ELEKTRI4KA | D | Локализованная версия 1К3.63 GB ↑ 0 ↓ 0
2024-01-18 magnet Дилижанс - Согреваемся зимой под русские народные (2023) MP3 194.99 MB ↑ 0 ↓ 0

Комментарии


Зарегистрируйтесь чтобы добавить комментарий
Торрент клиент
byTorrent - программа для загрузки торрент-файлов.

Скачать byTorrent.exe (1,5 МБ)

Скачать byTorrent.zip (0,6 МБ)

Поддержи torrent.by
российских рублей
(300 российских рублей это 4$)

Обратная связь rss

End game ©