↑↓torrent.by
Поиск
Логин:  Регистрация
Пароль:

Под прикрытием / Inside Man (2023) WEB-DLRip-AVC от DoMiNo & селезень | D

download Скачать торрент-файл   magnet Магнитная ссылка Размер: 1.41 GB Добавлен: 2024-02-02 05:00
Пиры будут получены из сети DHT
Последний сидер был замечен 2024-02-04 00:23
Информация о фильме Название: Под прикрытием Оригинальное название: Inside Man Год выхода: 2023 Жанр: триллер, драма, криминал Режиссер: Дэнни А. Абекейзер / Danny A. Abeckaser В ролях: Эмиль Хирш, Люси Хейл, Джейк Каннавале, Эшли Грин, Дэнни А. Абекейзер, Бо Дитл, Винсент Лареска, Грег Финли, Кайл Стефански, Роберт Дави, Джеймс Руссо, Джереми Люк, Антье Утгор, Эмили Левин, Сид Розенберг О фильме: Жизнь полицейского Бобби Белуччи рушится после того, как он узнает, что у его жены роман. Избив другого мужчину, будучи брошенным женой и пониженным в должности, Бобби решает изменить ситуацию и доказать своей жене и шефу, что он достоин прощения. Ему предоставляется возможность работать под прикрытием и уничтожить самого безжалостного убийцу мафии. Но цена прощения может оказаться выше, чем Бобби может себе позволить. Выпущено: США, Wild7 Films, 2B Films Продолжительность: 01:31:34 Перевод: Дублированный | Официальный Субтитры: Русские (Forced), Английские Файл Формат: Matroska Качество: WEB-DLRip-AVC | AMZN Видео: 1024x426 at 23.976 fps, x264@L4.1, ~1752 kbps Аудио: AC3, 6 ch, ~448 kbps - | Русский | Формат субтитров: softsub (SRT) ***Рип от: -=DoMiNo=-
[+] M/Ix264 : frame I:1178 Avg QP:15.42 size: 54613 x264 : frame P:26236 Avg QP:17.10 size: 20949 x264 : frame B:104318 Avg QP:18.92 size: 5651 General Unique ID : 339299153903211959183034806938523802343 (0xFF42A3DB055EE11BE162A1F3D34A1AE7) Complete name : I:Inside.Man.2023.DUB.WEB-DLRip.x264.seleZen.mkv Format : Matroska Format version : Version 4 File size : 1.41 GiB Duration : 1 h 31 min Overall bit rate : 2 202 kb/s Frame rate : 23.976 FPS Movie name : Inside.Man.2023.DUB.WEB-DLRip.x264.seleZen Encoded date : 2024-02-01 14:51:20 UTC Writing application : mkvmerge v82.0 ('I'm The President') 64-bit Writing library : libebml v1.4.5 + libmatroska v1.7.1 Cover : Yes Attachments : cover.jpg / small_cover.jpg Video ID : 1 Format : AVC Format/Info : Advanced Video Codec Format profile : High@L4.1 Format settings : CABAC / 14 Ref Frames Format settings, CABAC : Yes Format settings, Reference : 14 frames Codec ID : V_MPEG4/ISO/AVC Duration : 1 h 31 min Bit rate : 1 752 kb/s Width : 1 024 pixels Height : 426 pixels Display aspect ratio : 2.40:1 Frame rate mode : Constant Frame rate : 23.976 (24000/1001) FPS Color space : YUV Chroma subsampling : 4:2:0 Bit depth : 8 bits Scan type : Progressive Bits/(Pixel*Frame) : 0.168 Stream size : 1.12 GiB (80%) Title : -=DoMiNo=- Writing library : x264 core 164 r3173 -DoMiNo Encoding settings : cabac=1 / ref=14 / deblock=1:-2:-1 / analyse=0x3:0x133 / me=umh / subme=10 / psy=1 / psy_rd=1.00:0.15 / mixed_ref=1 / me_range=32 / chroma_me=1 / trellis=2 / 8x8dct=1 / cqm=0 / deadzone=21,11 / fast_pskip=0 / chroma_qp_offset=-3 / threads=17 / lookahead_threads=3 / sliced_threads=0 / nr=0 / decimate=0 / interlaced=0 / bluray_compat=0 / constrained_intra=0 / bframes=10 / b_pyramid=2 / b_adapt=2 / b_bias=0 / direct=1 / weightb=1 / open_gop=0 / weightp=2 / keyint=250 / keyint_min=23 / scenecut=40 / intra_refresh=0 / rc_lookahead=60 / rc=crf / mbtree=0 / crf=18.8 / qcomp=0.60 / qpmin=0 / qpmax=69 / qpstep=4 / vbv_maxrate=50000 / vbv_bufsize=62500 / crf_max=0.0 / nal_hrd=none / filler=0 / ip_ratio=1.40 / pb_ratio=1.30 / aq=3:0.90 Language : English Default : Yes Forced : No Color range : Limited Color primaries : BT.709 Transfer characteristics : BT.709 Matrix coefficients : BT.709 Audio ID : 2 Format : AC-3 Format/Info : Audio Coding 3 Commercial name : Dolby Digital Codec ID : A_AC3 Duration : 1 h 31 min Bit rate mode : Constant Bit rate : 448 kb/s Channel(s) : 6 channels Channel layout : L R C LFE Ls Rs Sampling rate : 48.0 kHz Frame rate : 31.250 FPS (1536 SPF) Compression mode : Lossy Stream size : 293 MiB (20%) Title : DUB Language : Russian Service kind : Complete Main Default : Yes Forced : No Text #1 ID : 3 Format : UTF-8 Codec ID : S_TEXT/UTF8 Codec ID/Info : UTF-8 Plain Text Duration : 1 h 22 min Bit rate : 0 b/s Frame rate : 0.001 FPS Count of elements : 3 Stream size : 111 Bytes (0%) Title : Forced Language : Russian Default : No Forced : No Text #2 ID : 4 Format : UTF-8 Codec ID : S_TEXT/UTF8 Codec ID/Info : UTF-8 Plain Text Duration : 1 h 26 min Bit rate : 80 b/s Frame rate : 0.274 FPS Count of elements : 1419 Stream size : 51.2 KiB (0%) Language : English (US) Default : No Forced : No Text #3 ID : 5 Format : UTF-8 Codec ID : S_TEXT/UTF8 Codec ID/Info : UTF-8 Plain Text Duration : 1 h 26 min Bit rate : 83 b/s Frame rate : 0.283 FPS Count of elements : 1463 Stream size : 52.7 KiB (0%) Title : SDH Language : English (US) Default : No Forced : No Menu 00:00:00.000 : en:Глава 01 00:05:50.000 : en:Глава 02 00:11:40.000 : en:Глава 03 00:17:30.000 : en:Глава 04 00:23:20.000 : en:Глава 05 00:29:10.000 : en:Глава 06 00:35:00.000 : en:Глава 07 00:40:50.000 : en:Глава 08 00:46:40.000 : en:Глава 09 00:52:30.000 : en:Глава 10 00:58:20.000 : en:Глава 11 01:04:10.000 : en:Глава 12 01:10:00.000 : en:Глава 13 01:15:50.000 : en:Глава 14 01:21:40.000 : en:Глава 15 01:27:30.000 : en:Глава 16
Релиз: Присоединяйся к: Кликай на баннеры.

Всего файлов в раздаче: 1 
Inside.Man.2023.DUB.WEB-DLRip.x264.seleZen.mkv1.41 GB

Похожие раздачи по запросу - Под
2024-02-03 magnet Под прикрытием / Inside Man (2023) WEB-DLRip от ExKinoRay | D | Локализованная версия 747.22 MB ↑ 0 ↓ 0
2024-02-02 magnet Под прикрытием / Inside Man (2023) WEB-DL 1080p от New-Team | D 6.15 GB ↑ 0 ↓ 0
2024-02-02 magnet Под прикрытием / Inside Man (2023) WEB-DLRip от MegaPeer | D 1.46 GB ↑ 0 ↓ 0
2024-02-02 magnet Под прикрытием / Inside Man (2023) WEB-DL 1080p от ELEKTRI4KA | D | Локализованная версия 1К3.63 GB ↑ 0 ↓ 0
2024-02-02 magnet Под прикрытием / Inside Man (2023) WEB-DL 1080p от ELEKTRI4KA | D 6.36 GB ↑ 0 ↓ 0
2024-02-02 magnet Под прикрытием / Inside Man (2023) WEB-DLRip от ELEKTRI4KA | D | Локализованная версия 1.46 GB ↑ 0 ↓ 0
2024-01-22 magnet Под Сильвер-Лэйк / Under the Silver Lake (2018) BDRip 1080p от ExKinoRay | D, P, P2 | NOR-Transfer 13.50 GB ↑ 0 ↓ 0

Комментарии


Зарегистрируйтесь чтобы добавить комментарий
Торрент клиент
byTorrent - программа для загрузки торрент-файлов.

Скачать byTorrent.exe (1,5 МБ)

Скачать byTorrent.zip (0,6 МБ)

Поддержи torrent.by
российских рублей
(300 российских рублей это 4$)

Обратная связь rss

End game ©