↑↓torrent.by
Поиск
Логин:  Регистрация
Пароль:

Под прикрытием / Inside Man (2023) WEB-DL 1080p от New-Team | D

download Скачать торрент-файл   magnet Магнитная ссылка Размер: 6.15 GB Добавлен: 2024-02-02 05:00
Пиры будут получены из сети DHT
Последний сидер был замечен 2024-02-05 10:01
Под прикрытием / Inside Man Год выпуска: 2023 Выпущено: США, Wild7 Films, 2B Films Жанр: Триллер, драма, криминал Режиссер: Дэнни А. Абекейзер / Danny A. Abeckaser В ролях: Эмиль Хирш, Люси Хейл, Джейк Каннавале, Эшли Грин, Дэнни А. Абекейзер, Бо Дитл, Винсент Лареска, Грег Финли, Кайл Стефански, Роберт Дави, Джеймс Руссо, Джереми Люк, Антье Утгор, Эмили Левин, Сид Розенберг О фильме: Бобби – это мужчина, который жил вполне обычной жизнью и работал в полиции. Судьба у него складывалась просто замечательно. У него была неплохая должность, любимая супруга, а большего для счастья и не нужно. Однако в какой-то момент он узнает о романе своей супруги. После этого он избивает мужчину. Случившееся серьезно повлияло на него. Он был понижен в должности и теперь должен заслужить прощение босса. Продолжительность: 01:31:34 Перевод: Профессиональный (полное дублирование) | Официальный Субтитры: Английские Раздача от: Автор релиза: JNS82. Формат: MKV Качество: WEB-DL 1080p | AMZN Видео: MPEG-4 AVC, 8532 Кбит/с, 1920x800 Аудио #1: AC3, 6 ch, 448 Кбит/с | RUS | Аудио #2: E-AC3, 6 ch, 640 Кбит/с | ENG |
[+] MediaInfoОбщее Уникальный идентификатор : 110255697397461649101404631771767337303 (0x52F279941365960C2CC0DAF3401B7157) Полное имя : D:TorrentsInside.Man.2023.1080p.AMZN_от New-Team.mkv Формат : Matroska Версия формата : Version 4 Размер файла : 6,15 Гбайт Продолжительность : 1 ч. 31 м. Общий поток : 9 622 Кбит/сек Название фильма : Inside.Man.2023.1080p.AMZN_от New-Team Дата кодирования : UTC 2024-02-01 14:18:07 Программа кодирования : mkvmerge v79.0 ('Funeral Pyres') 64-bit Библиотека кодирования : libebml v1.4.4 + libmatroska v1.7.1 Видео Идентификатор : 1 Формат : AVC Формат/Информация : Advanced Video Codec Профиль формата : High@L4 Настройки формата : CABAC / 4 Ref Frames Параметр CABAC формата : Да Параметр RefFrames формата : 4 кадра Идентификатор кодека : V_MPEG4/ISO/AVC Продолжительность : 1 ч. 31 м. Вид битрейта : Постоянный Битрейт : 8 532 Кбит/сек Номинальный битрейт : 10 000 Кбит/сек Ширина : 1 920 пикселей Высота : 800 пикселей Соотношение сторон : 2,40:1 Режим частоты кадров : Постоянный Частота кадров : 23,976 (24000/1001) кадра/сек Цветовое пространство : YUV Субдискретизация насыщенности : 4:2:0 Битовая глубина : 8 бит Тип развёртки : Прогрессивная Бит/(Пиксели*Кадры) : 0.232 Размер потока : 5,46 Гбайт (89%) Язык : English Default : Да Forced : Нет Цветовой диапазон : Limited Основные цвета : BT.709 Характеристики трансфера : BT.709 Коэффициенты матрицы : BT.709 Аудио #1 Идентификатор : 2 Формат : AC-3 Формат/Информация : Audio Coding 3 Коммерческое название : Dolby Digital Идентификатор кодека : A_AC3 Продолжительность : 1 ч. 31 м. Вид битрейта : Постоянный Битрейт : 448 Кбит/сек Каналы : 6 каналов Channel layout : L R C LFE Ls Rs Частота : 48,0 КГц Частота кадров : 31,250 кадров/сек (1536 SPF) Метод сжатия : С потерями Размер потока : 293 Мбайт (5%) Заголовок : DUB - Официальный Язык : Russian Service kind : Complete Main Default : Да Forced : Нет Аудио #2 Идентификатор : 3 Формат : E-AC-3 Формат/Информация : Enhanced AC-3 Коммерческое название : Dolby Digital Plus Идентификатор кодека : A_EAC3 Продолжительность : 1 ч. 31 м. Вид битрейта : Постоянный Битрейт : 640 Кбит/сек Каналы : 6 каналов Channel layout : L R C LFE Ls Rs Частота : 48,0 КГц Частота кадров : 31,250 кадров/сек (1536 SPF) Метод сжатия : С потерями Размер потока : 419 Мбайт (7%) Заголовок : Original Язык : English Service kind : Complete Main Default : Нет Forced : Нет Текст #1 Идентификатор : 4 Формат : UTF-8 Идентификатор кодека : S_TEXT/UTF8 Идентификатор кодека/Информация : UTF-8 Plain Text Продолжительность : 1 ч. 26 м. Битрейт : 80 бит/сек Count of elements : 1419 Размер потока : 51,2 Кбайт (0%) Заголовок : Язык : English Default : Нет Forced : Нет Текст #2 Идентификатор : 5 Формат : UTF-8 Идентификатор кодека : S_TEXT/UTF8 Идентификатор кодека/Информация : UTF-8 Plain Text Продолжительность : 1 ч. 26 м. Битрейт : 83 бит/сек Count of elements : 1463 Размер потока : 52,7 Кбайт (0%) Заголовок : Язык : English Default : Нет Forced : Нет

Всего файлов в раздаче: 1 
Inside.Man.2023.1080p.AMZN_от New-Team.mkv6.15 GB

Похожие раздачи по запросу - Под
2024-02-03 magnet Под прикрытием / Inside Man (2023) WEB-DLRip от ExKinoRay | D | Локализованная версия 747.22 MB ↑ 0 ↓ 0
2024-02-02 magnet Под прикрытием / Inside Man (2023) WEB-DLRip от MegaPeer | D 1.46 GB ↑ 0 ↓ 0
2024-02-02 magnet Под прикрытием / Inside Man (2023) WEB-DLRip-AVC от DoMiNo & селезень | D 1.41 GB ↑ 0 ↓ 0
2024-02-02 magnet Под прикрытием / Inside Man (2023) WEB-DL 1080p от ELEKTRI4KA | D | Локализованная версия 1К3.63 GB ↑ 0 ↓ 0
2024-02-02 magnet Под прикрытием / Inside Man (2023) WEB-DL 1080p от ELEKTRI4KA | D 6.36 GB ↑ 0 ↓ 0
2024-02-02 magnet Под прикрытием / Inside Man (2023) WEB-DLRip от ELEKTRI4KA | D | Локализованная версия 1.46 GB ↑ 0 ↓ 0
2024-01-18 magnet Дилижанс - Согреваемся зимой под русские народные (2023) MP3 194.99 MB ↑ 0 ↓ 0

Комментарии


Зарегистрируйтесь чтобы добавить комментарий
Торрент клиент
byTorrent - программа для загрузки торрент-файлов.

Скачать byTorrent.exe (1,5 МБ)

Скачать byTorrent.zip (0,6 МБ)

Поддержи torrent.by
российских рублей
(300 российских рублей это 4$)

Обратная связь rss

End game ©