↑↓torrent.by
Поиск
Логин:  Регистрация
Пароль:

Дорога в один конец / Bring Him to Me (2023) WEB-DLRip-AVC от DoMiNo & селезень | D

download Скачать торрент-файл   magnet Магнитная ссылка Размер: 1.46 GB Добавлен: 2024-02-02 05:00
Пиры будут получены из сети DHT
Последний сидер был замечен 2024-02-13 23:30
Информация о фильме Название: Дорога в один конец Оригинальное название: Bring Him to Me Год выпуска: 2023 Жанр: триллер, криминал Режиссер: Люк Спарк / Luke Sparke В ролях: Барри Пеппер, Джэми Коста, Сэм Нил, Рэйчел Гриффитс, Лиам Макинтайр, Захари Гарред, Эллисон Бойд, Харли Бронвин, Дженнингс Броуэр, Алекс Флери, Харрисон Ирвин, Маркус Джонсон, Томас Питтс, Хосемили Санчес О фильме: Водитель должен отвезти ничего не подозревающего пассажира в место, где ему грозит смерть. По пути он борется с муками совести, пытаясь найти правильное решение в этой безвыходной ситуации. Выпущено: Австралия, Sparke Films Продолжительность: 01:36:12 Перевод: Профессиональный (полное дублирование) | СиПиАй Филмз / CPI Films Субтитры: Английские Файл Формат: Matroska Качество: WEB-DLRip-AVC Видео: 1024x422 at 24.000 fps, x264@L4.1, ~1717 kbps Аудио: AC3, 6 ch, ~448 kbps - | Русский | Формат субтитров: softsub (SRT) ***Рип от: -=DoMiNo=-
[+] M/Ix264 : frame I:871 Avg QP:13.44 size: 45235 x264 : frame P:32516 Avg QP:15.37 size: 18196 x264 : frame B:105152 Avg QP:18.29 size: 5779 General Unique ID : 77334611165743977887687421665914320627 (0x3A2E1AB5E7EE51383F8250DF1AD6F6F3) Complete name : I:Bring.Him.To.Me.2023.DUB.WEB-DLRip.x264.seleZen.mkv Format : Matroska Format version : Version 4 File size : 1.46 GiB Duration : 1 h 36 min Overall bit rate : 2 167 kb/s Frame rate : 24.000 FPS Movie name : Bring.Him.To.Me.2023.DUB.WEB-DLRip.x264.seleZen Encoded date : 2024-02-01 13:48:28 UTC Writing application : mkvmerge v82.0 ('I'm The President') 64-bit Writing library : libebml v1.4.5 + libmatroska v1.7.1 Cover : Yes Attachments : cover.jpg / small_cover.jpg Video ID : 1 Format : AVC Format/Info : Advanced Video Codec Format profile : High@L4.1 Format settings : CABAC / 14 Ref Frames Format settings, CABAC : Yes Format settings, Reference : 14 frames Codec ID : V_MPEG4/ISO/AVC Duration : 1 h 36 min Bit rate : 1 717 kb/s Width : 1 024 pixels Height : 422 pixels Display aspect ratio : 2.40:1 Frame rate mode : Constant Frame rate : 24.000 FPS Color space : YUV Chroma subsampling : 4:2:0 Bit depth : 8 bits Scan type : Progressive Bits/(Pixel*Frame) : 0.166 Stream size : 1.15 GiB (79%) Title : -=DoMiNo=- Writing library : x264 core 164 r3173 -DoMiNo Encoding settings : cabac=1 / ref=14 / deblock=1:-1:-1 / analyse=0x3:0x133 / me=umh / subme=10 / psy=1 / psy_rd=1.00:0.00 / mixed_ref=1 / me_range=32 / chroma_me=1 / trellis=2 / 8x8dct=1 / cqm=0 / deadzone=21,11 / fast_pskip=0 / chroma_qp_offset=-2 / threads=17 / lookahead_threads=3 / sliced_threads=0 / nr=0 / decimate=0 / interlaced=0 / bluray_compat=0 / constrained_intra=0 / bframes=10 / b_pyramid=2 / b_adapt=2 / b_bias=0 / direct=1 / weightb=1 / open_gop=0 / weightp=2 / keyint=250 / keyint_min=24 / scenecut=40 / intra_refresh=0 / rc_lookahead=60 / rc=crf / mbtree=0 / crf=18.0 / qcomp=0.60 / qpmin=0 / qpmax=69 / qpstep=4 / vbv_maxrate=50000 / vbv_bufsize=62500 / crf_max=0.0 / nal_hrd=none / filler=0 / ip_ratio=1.40 / pb_ratio=1.30 / aq=3:0.80 Language : English Default : Yes Forced : No Color range : Limited Color primaries : BT.709 Transfer characteristics : BT.709 Matrix coefficients : BT.709 Audio ID : 2 Format : AC-3 Format/Info : Audio Coding 3 Commercial name : Dolby Digital Codec ID : A_AC3 Duration : 1 h 36 min Bit rate mode : Constant Bit rate : 448 kb/s Channel(s) : 6 channels Channel layout : L R C LFE Ls Rs Sampling rate : 48.0 kHz Frame rate : 31.250 FPS (1536 SPF) Compression mode : Lossy Stream size : 308 MiB (21%) Title : DUB -CPI Films Language : Russian Service kind : Complete Main Default : Yes Forced : No Text #1 ID : 3 Format : UTF-8 Codec ID : S_TEXT/UTF8 Codec ID/Info : UTF-8 Plain Text Duration : 1 h 33 min Bit rate : 49 b/s Frame rate : 0.207 FPS Count of elements : 1159 Stream size : 34.2 KiB (0%) Title : Full Language : English (US) Default : No Forced : No Text #2 ID : 4 Format : UTF-8 Codec ID : S_TEXT/UTF8 Codec ID/Info : UTF-8 Plain Text Duration : 1 h 33 min Bit rate : 57 b/s Frame rate : 0.251 FPS Count of elements : 1408 Stream size : 39.6 KiB (0%) Title : SDH Language : English (US) Default : No Forced : No Menu 00:00:00.000 : en:Глава 01 00:05:50.000 : en:Глава 02 00:11:40.000 : en:Глава 03 00:17:30.000 : en:Глава 04 00:23:20.000 : en:Глава 05 00:29:10.000 : en:Глава 06 00:35:00.000 : en:Глава 07 00:40:50.000 : en:Глава 08 00:46:40.000 : en:Глава 09 00:52:30.000 : en:Глава 10 00:58:20.000 : en:Глава 11 01:04:10.000 : en:Глава 12 01:10:00.000 : en:Глава 13 01:15:50.000 : en:Глава 14 01:21:40.000 : en:Глава 15 01:27:30.000 : en:Глава 16 01:33:20.000 : en:Глава 17
Релиз: Присоединяйся к: Кликай на баннеры.

Всего файлов в раздаче: 1 
Bring.Him.To.Me.2023.DUB.WEB-DLRip.x264.seleZen.mkv1.46 GB

Похожие раздачи по запросу - Дорога
2024-02-13 magnet Дорога милосердия / В погоне / Mercy Road (2023) BDRip 720p от ELEKTRI4KA | P 4.26 GB ↑ 0 ↓ 0
2024-02-13 magnet Дорога милосердия / В погоне / Mercy Road (2023) BDRip 1080p от ELEKTRI4KA | P 8.07 GB ↑ 0 ↓ 0
2024-02-02 magnet Дорога в один конец / Bring Him to Me (2023) WEB-DLRip от MegaPeer | D 1.46 GB ↑ 0 ↓ 0
2024-02-01 magnet Дорога в один конец / Bring Him to Me (2023) WEB-DL 1080p от New-Team | D 5.03 GB ↑ 0 ↓ 0
2024-02-01 magnet Дорога милосердия / Mercy Road (2023) BDRip от MegaPeer | P 1К1.46 GB ↑ 0 ↓ 0
2024-01-23 magnet Дорога в один конец / Bring Him to Me (2023) WEB-DLRip-AVC от DoMiNo | L 1.54 GB ↑ 0 ↓ 0
2024-01-22 magnet Дорога в один конец / Bring Him to Me (2023) WEB-DL 1080p от JNS82 | L 4.86 GB ↑ 0 ↓ 0

Комментарии


Зарегистрируйтесь чтобы добавить комментарий
Торрент клиент
byTorrent - программа для загрузки торрент-файлов.

Скачать byTorrent.exe (1,5 МБ)

Скачать byTorrent.zip (0,6 МБ)

Поддержи torrent.by
российских рублей
(300 российских рублей это 4$)

Обратная связь rss

End game ©