↑↓torrent.by
Поиск
Логин:  Регистрация
Пароль:

Подземелья и драконы: Честь среди воров / Dungeons & Dragons: Honor Among Thieves (2023) BDRip-HEVC 1080p от RIPS CLUB | D, P, A

download Скачать торрент-файл   magnet Магнитная ссылка Размер: 11.32 GB Добавлен: 2024-02-02 11:00
Пиры будут получены из сети DHT
Последний сидер был замечен 2024-02-18 22:48
Название: Подземелья и драконы: Честь среди воров Оригинальное название: Dungeons & Dragons: Honor Among Thieves Год производства: 2023 Премьера в мире: 10 марта 2023 Производство: США, Канада / Allspark Pictures, Aurum Producciones S.A., Hasbro Inc., Hasbro Studios, Paramount Pictures Жанр: фэнтези, боевик, комедия Режиссёр: Джон Фрэнсис Дейли, Джонатан М. Голдштейн В ролях: Крис Пайн, Мишель Родригес, Джастис Смит, София Лиллис, Хью Грант, Хлоя Коулмэн, Дэйзи Хэд, Реге-Жан Пейдж, Кайл Хиксон, Спенсер Уайлдинг О фильме: Бард и авантюрист Эдгин Дарвис вместе с боевой подругой Хольгой сбегает из тюрьмы и отправляется повидать дочку, которую последние годы опекал его бывший подельник Фордж. По прибытии выясняется, что тот при поддержке подозрительной колдуньи Софины не только сказочно разбогател и сделался губернатором, но и настроил дочь против отца, да и вообще — не против избавиться от Эдгина и Хольги. Умудрившись отбиться от палачей, отчаянная парочка планирует страшную месть, а для этого им придётся объединиться с рассеянным магом Саймоном, ловкой друидкой Дорик и отыскать считавшийся утерянным волшебный шлем. Продолжительность: 02:14:08 Перевод: дублированный (SDI Media/Iyuno-SDI Group), дублированный неофициальный (Red Head Sound), многоголосый профессиональный, авторский Качество: BDRip-HEVC 1080p Кодек: HEVC (x265) Видео: 1920x804 (2.40:1), 7529 Кбит/сек, HEVC (Main10@L.4.1@High) 10 бит Звук: Аудио1: AC3, 6 ch, 384 Kbps - Русский, DUB (SDI Media/Iyuno-SDI Group) Аудио2: AC3, 6 ch, 448 Kbps - Русский, DUB (Red Head Sound) Аудио3: AC3, 6 ch, 640 Kbps - Русский, MVO (NewComers) Аудио4: AC3, 6 ch, 448 Kbps - Русский, MVO (TVShows) Аудио5: AC3, 6 ch, 384 Kbps - Русский, MVO (Jaskier) Аудио6: AC3, 2 ch, 384 Kbps - Русский, MVO (LostFilm) Аудио7: AC3, 6 ch, 640 Kbps - Русский, AVO (Юрий Сербин) Аудио8: E-AC3, 6 ch, 576 Kbps - Украинский, DUB (LeDoyen) Аудио9: AC3, 6 ch, 640 Kbps - Английский Субтитры: русские (full, forced), украинские (full, forced), английские (full, forced, SDH) Навигация по главам: Есть
[+] Лог (x265 info) + Mediainfo x265 : frame I: 814, Avg QP:18.63 kb/s: 22925.01 x265 : frame P: 33001, Avg QP:20.79 kb/s: 15076.40 x265 : frame B: 159148, Avg QP:21.59 kb/s: 5883.76 x265 : Weighted P-Frames: Y:11.3% UV:9.2% x265 : Weighted B-Frames: Y:11.1% UV:8.7% x265 : encoded 192963 frames in 140226.42s (1.38 fps), 7527.79 kb/s, Avg QP:21.44 Общее Уникальный идентификатор : 133720383344456812454308718587083499628 (0x64999BEA6CFD7732B412F6289D84286C) Полное имя : \.Подземелья.и.драконы.Честь.среди.воров.Dungeons.&.Dragons.Honor.Among.Thieves.2023.BDRip-HEVC.1080p.mkv Формат : Matroska Версия формата : Version 4 Размер файла : 11,3 Гбайт Продолжительность : 2 ч. 14 м. Общий поток : 12,1 Мбит/сек Частота кадров : 23,976 кадра/сек Название фильма : Подземелья и драконы: Честь среди воров / Подземелья и драконы: Честь среди воров Кодирование произвёл : OldGamer Тип содержимого : Movie Описание : «Кому нужны герои, когда есть воры?» Дата выпуска : 2023-03-23 Дата записи : 2023-03-23 Программа кодирования : mkvmerge v82.0 ('I'm The President') 64-bit Библиотека кодирования : libebml v1.4.5 + libmatroska v1.7.1 Обложка : Yes Attachments : cover.jpg ACTOR : Chris Pine, Michelle Rodriguez, Justice Smith, Sophia Lillis, Hugh Grant, Regé-Jean Page, Chloe Coleman, Daisy Head, Kyle Hixon, Spencer Wilding, Will Irvine, Nicholas Blane, Bryan Larkin, Sarah Amankwah, Colin Carnegie, Georgia Landers, Sophia Nell ... ARTIST : Chris Pine, Michelle Rodriguez, Justice Smith, Sophia Lillis, Hugh Grant, Regé-Jean Page, Chloe Coleman, Daisy Head, Kyle Hixon, Spencer Wilding, Will Irvine, Nicholas Blane, Bryan Larkin, Sarah Amankwah, Colin Carnegie, Georgia Landers, Sophia Nell ... DIRECTOR : John Francis Daley, Jonathan Goldstein GENRE : приключения, фэнтези, комедия LAW_RATING : PG-13 PRODUCER : Brian Goldner, Jeremy Latcham, Nick Meyer PRODUCTION_STUDIO : Paramount RATING : PG-13 SCREENPLAY_BY : John Francis Daley, Michael Gilio, Jonathan Goldstein SUMMARY : «Кому нужны герои, когда есть воры?» SYNOPSIS : Эдгин Дарвис вместе с верной воительницей Хольгой объединяются с рассеянным магом Саймоном, ловкой друидкой Дорик и чопорным паладином Зенком, чтобы вернуть утерянную реликвию, наделенную огромной силой. Однако всё быстро идет наперекосяк, когда на их пути встает злодей Фордж. WRITTEN_BY : John Francis Daley, Michael Gilio, Jonathan Goldstein Видео Идентификатор : 1 Формат : HEVC Формат/Информация : High Efficiency Video Coding Профиль формата : Main 10@L4.1@High Идентификатор кодека : V_MPEGH/ISO/HEVC Продолжительность : 2 ч. 14 м. Битрейт : 7 529 Кбит/сек Ширина : 1 920 пикселей Высота : 804 пикселя Соотношение сторон : 2,39:1 Режим частоты кадров : Постоянный Частота кадров : 23,976 (24000/1001) кадра/сек Цветовое пространство : YUV Субдискретизация насыщенности : 4:2:0 Битовая глубина : 10 бит Бит/(Пиксели*Кадры) : 0.203 Размер потока : 7,05 Гбайт (62%) Заголовок : Dungeons & Dragons: Honor Among Thieves / Rip by OldGamer Библиотека кодирования : x265 3.5+102-34532bda1: 10bit Настройки программы : cpuid=1111039 / frame-threads=3 / numa-pools=8 / wpp / no-pmode / no-pme / no-psnr / no-ssim / log-level=2 / input-csp=1 / input-res=1920x804 / interlace=0 / total-frames=192963 / level-idc=41 / high-tier=1 / uhd-bd=0 / ref=5 / no-allow-non-conformance / no-repeat-headers / annexb / no-aud / no-eob / no-eos / no-hrd / info / hash=0 / temporal-layers=0 / open-gop / min-keyint=23 / keyint=240 / gop-lookahead=0 / bframes=16 / b-adapt=2 / b-pyramid / bframe-bias=0 / rc-lookahead=40 / lookahead-slices=0 / scenecut=40 / no-hist-scenecut / radl=0 / no-splice / no-intra-refresh / ctu=32 / min-cu-size=8 / rect / amp / max-tu-size=32 / tu-inter-depth=4 / tu-intra-depth=4 / limit-tu=1 / rdoq-level=2 / dynamic-rd=0.00 / no-ssim-rd / signhide / no-tskip / nr-intra=0 / nr-inter=0 / no-constrained-intra / no-strong-intra-smoothing / max-merge=5 / limit-refs=3 / no-limit-modes / me=3 / subme=7 / merange=57 / temporal-mvp / no-frame-dup / no-hme / weightp / weightb / no-analyze-src-pics / deblock=-3:-3 / no-sao / no-sao-non-deblock / rd=6 / selective-sao=0 / no-early-skip / no-rskip / no-fast-intra / no-tskip-fast / no-cu-lossless / b-intra / no-splitrd-skip / rdpenalty=0 / psy-rd=2.00 / psy-rdoq=1.00 / no-rd-refine / no-lossless / cbqpoffs=0 / crqpoffs=0 / rc=crf / crf=19.9 / qcomp=0.70 / qpstep=4 / stats-write=0 / stats-read=0 / vbv-maxrate=50000 / vbv-bufsize=50000 / vbv-init=0.9 / min-vbv-fullness=50.0 / max-vbv-fullness=80.0 / crf-max=0.0 / crf-min=0.0 / ipratio=1.40 / pbratio=1.30 / aq-mode=1 / aq-strength=0.80 / no-cutree / zone-count=1 / zones: / start-frame=183973 / end-frame=192963 / qp=36 / no-strict-cbr / qg-size=32 / no-rc-grain / qpmax=69 / qpmin=0 / no-const-vbv / sar=1 / overscan=0 / videoformat=5 / range=0 / colorprim=2 / transfer=2 / colormatrix=2 / chromaloc=0 / display-window=0 / cll=0,0 / min-luma=0 / max-luma=1023 / log2-max-poc-lsb=8 / vui-timing-info / vui-hrd-info / slices=1 / no-opt-qp-pps / no-opt-ref-list-length-pps / no-multi-pass-opt-rps / scenecut-bias=0.00 / no-opt-cu-delta-qp / no-aq-motion / no-hdr10 / no-hdr10-opt / no-dhdr10-opt / no-idr-recovery-sei / analysis-reuse-level=0 / analysis-save-reuse-level=0 / analysis-load-reuse-level=0 / scale-factor=0 / refine-intra=0 / refine-inter=0 / refine-mv=1 / refine-ctu-distortion=0 / no-limit-sao / ctu-info=0 / no-lowpass-dct / refine-analysis-type=0 / copy-pic=1 / max-ausize-factor=1.0 / no-dynamic-refine / no-single-sei / no-hevc-aq / no-svt / no-field / qp-adaptation-range=1.00 / scenecut-aware-qp=0conformance-window-offsets / right=0 / bottom=0 / decoder-max-rate=0 / no-vbv-live-multi-pass / no-mcstf / no-sbrc Язык : English Default : Да Forced : Нет Аудио #1 Идентификатор : 2 Формат : AC-3 Формат/Информация : Audio Coding 3 Коммерческое название : Dolby Digital Идентификатор кодека : A_AC3 Продолжительность : 2 ч. 14 м. Вид битрейта : Постоянный Битрейт : 384 Кбит/сек Каналы : 6 каналов Channel layout : L R C LFE Ls Rs Частота : 48,0 КГц Частота кадров : 31,250 кадров/сек (1536 SPF) Метод сжатия : С потерями Размер потока : 368 Мбайт (3%) Заголовок : DUB (SDI Media/Iyuno-SDI Group) Язык : Russian Service kind : Complete Main Default : Да Forced : Нет Аудио #2 Идентификатор : 3 Формат : AC-3 Формат/Информация : Audio Coding 3 Коммерческое название : Dolby Digital Идентификатор кодека : A_AC3 Продолжительность : 2 ч. 14 м. Вид битрейта : Постоянный Битрейт : 448 Кбит/сек Каналы : 6 каналов Channel layout : L R C LFE Ls Rs Частота : 48,0 КГц Частота кадров : 31,250 кадров/сек (1536 SPF) Метод сжатия : С потерями Размер потока : 430 Мбайт (4%) Заголовок : DUB (Red Head Sound) Язык : Russian Service kind : Complete Main Default : Нет Forced : Нет Аудио #3 Идентификатор : 4 Формат : AC-3 Формат/Информация : Audio Coding 3 Коммерческое название : Dolby Digital Идентификатор кодека : A_AC3 Продолжительность : 2 ч. 14 м. Вид битрейта : Постоянный Битрейт : 640 Кбит/сек Каналы : 6 каналов Channel layout : L R C LFE Ls Rs Частота : 48,0 КГц Частота кадров : 31,250 кадров/сек (1536 SPF) Метод сжатия : С потерями Размер потока : 614 Мбайт (5%) Заголовок : MVO (NewComers) Язык : Russian Service kind : Complete Main Default : Нет Forced : Нет Аудио #4 Идентификатор : 5 Формат : AC-3 Формат/Информация : Audio Coding 3 Коммерческое название : Dolby Digital Идентификатор кодека : A_AC3 Продолжительность : 2 ч. 14 м. Вид битрейта : Постоянный Битрейт : 448 Кбит/сек Каналы : 6 каналов Channel layout : L R C LFE Ls Rs Частота : 48,0 КГц Частота кадров : 31,250 кадров/сек (1536 SPF) Метод сжатия : С потерями Размер потока : 430 Мбайт (4%) Заголовок : MVO (TVShows) Язык : Russian Service kind : Complete Main Default : Нет Forced : Нет Аудио #5 Идентификатор : 6 Формат : AC-3 Формат/Информация : Audio Coding 3 Коммерческое название : Dolby Digital Идентификатор кодека : A_AC3 Продолжительность : 2 ч. 14 м. Вид битрейта : Постоянный Битрейт : 384 Кбит/сек Каналы : 6 каналов Channel layout : L R C LFE Ls Rs Частота : 48,0 КГц Частота кадров : 31,250 кадров/сек (1536 SPF) Метод сжатия : С потерями Размер потока : 368 Мбайт (3%) Заголовок : MVO (Jaskier) Язык : Russian Service kind : Complete Main Default : Нет Forced : Нет Аудио #6 Идентификатор : 7 Формат : AC-3 Формат/Информация : Audio Coding 3 Коммерческое название : Dolby Digital Идентификатор кодека : A_AC3 Продолжительность : 2 ч. 14 м. Вид битрейта : Постоянный Битрейт : 384 Кбит/сек Каналы : 2 канала Channel layout : L R Частота : 48,0 КГц Частота кадров : 31,250 кадров/сек (1536 SPF) Метод сжатия : С потерями Размер потока : 368 Мбайт (3%) Заголовок : MVO (LostFilm) Язык : Russian Service kind : Complete Main Default : Нет Forced : Нет Аудио #7 Идентификатор : 8 Формат : AC-3 Формат/Информация : Audio Coding 3 Коммерческое название : Dolby Digital Идентификатор кодека : A_AC3 Продолжительность : 2 ч. 14 м. Вид битрейта : Постоянный Битрейт : 640 Кбит/сек Каналы : 6 каналов Channel layout : L R C LFE Ls Rs Частота : 48,0 КГц Частота кадров : 31,250 кадров/сек (1536 SPF) Метод сжатия : С потерями Размер потока : 614 Мбайт (5%) Заголовок : AVO (Юрий Сербин) Язык : Russian Service kind : Complete Main Default : Нет Forced : Нет Аудио #8 Идентификатор : 9 Формат : E-AC-3 Формат/Информация : Enhanced AC-3 Коммерческое название : Dolby Digital Plus Идентификатор кодека : A_EAC3 Продолжительность : 2 ч. 14 м. Вид битрейта : Постоянный Битрейт : 576 Кбит/сек Каналы : 6 каналов Channel layout : L R C LFE Ls Rs Частота : 48,0 КГц Частота кадров : 31,250 кадров/сек (1536 SPF) Метод сжатия : С потерями Размер потока : 553 Мбайт (5%) Заголовок : DUB (LeDoyen) Язык : Ukrainian Service kind : Complete Main Default : Нет Forced : Нет Аудио #9 Идентификатор : 10 Формат : AC-3 Формат/Информация : Audio Coding 3 Коммерческое название : Dolby Digital Идентификатор кодека : A_AC3 Продолжительность : 2 ч. 14 м. Вид битрейта : Постоянный Битрейт : 640 Кбит/сек Каналы : 6 каналов Channel layout : L R C LFE Ls Rs Частота : 48,0 КГц Частота кадров : 31,250 кадров/сек (1536 SPF) Метод сжатия : С потерями Размер потока : 614 Мбайт (5%) Язык : English Service kind : Complete Main Default : Нет Forced : Нет Текст #1 Идентификатор : 11 Формат : UTF-8 Идентификатор кодека : S_TEXT/UTF8 Идентификатор кодека/Информация : UTF-8 Plain Text Продолжительность : 1 ч. 59 м. Битрейт : 1 бит/сек Частота кадров : 0,002 кадр/сек Count of elements : 15 Размер потока : 989 байт (0%) Заголовок : forced (iTunes) Язык : Russian Default : Да Forced : Нет Текст #2 Идентификатор : 12 Формат : UTF-8 Идентификатор кодека : S_TEXT/UTF8 Идентификатор кодека/Информация : UTF-8 Plain Text Продолжительность : 1 ч. 18 м. Битрейт : 2 бит/сек Частота кадров : 0,006 кадр/сек Count of elements : 28 Размер потока : 1,52 Кбайт (0%) Заголовок : forced (LostFilm) Язык : Russian Default : Нет Forced : Нет Текст #3 Идентификатор : 13 Формат : UTF-8 Идентификатор кодека : S_TEXT/UTF8 Идентификатор кодека/Информация : UTF-8 Plain Text Продолжительность : 2 ч. 12 м. Битрейт : 81 бит/сек Частота кадров : 0,198 кадр/сек Count of elements : 1580 Размер потока : 79,8 Кбайт (0%) Заголовок : full (iTunes) Язык : Russian Default : Нет Forced : Нет Текст #4 Идентификатор : 14 Формат : UTF-8 Идентификатор кодека : S_TEXT/UTF8 Идентификатор кодека/Информация : UTF-8 Plain Text Продолжительность : 2 ч. 6 м. Битрейт : 94 бит/сек Частота кадров : 0,215 кадр/сек Count of elements : 1638 Размер потока : 87,6 Кбайт (0%) Заголовок : full (RebelProject) Язык : Russian Default : Нет Forced : Нет Текст #5 Идентификатор : 15 Формат : UTF-8 Идентификатор кодека : S_TEXT/UTF8 Идентификатор кодека/Информация : UTF-8 Plain Text Продолжительность : 1 ч. 37 м. Битрейт : 1 бит/сек Частота кадров : 0,002 кадр/сек Count of elements : 14 Размер потока : 858 байт (0%) Заголовок : Форсовані iTunes Язык : Ukrainian Default : Нет Forced : Нет Текст #6 Идентификатор : 16 Формат : UTF-8 Идентификатор кодека : S_TEXT/UTF8 Идентификатор кодека/Информация : UTF-8 Plain Text Продолжительность : 2 ч. 12 м. Битрейт : 81 бит/сек Частота кадров : 0,199 кадр/сек Count of elements : 1590 Размер потока : 79,3 Кбайт (0%) Заголовок : Повнi iTunes Язык : Ukrainian Default : Нет Forced : Нет Текст #7 Идентификатор : 17 Формат : UTF-8 Идентификатор кодека : S_TEXT/UTF8 Идентификатор кодека/Информация : UTF-8 Plain Text Продолжительность : 35 м. 25 с. Битрейт : 1 бит/сек Частота кадров : 0,006 кадр/сек Count of elements : 13 Размер потока : 483 байт (0%) Заголовок : Forced SRT Язык : English Default : Нет Forced : Нет Текст #8 Идентификатор : 18 Формат : UTF-8 Идентификатор кодека : S_TEXT/UTF8 Идентификатор кодека/Информация : UTF-8 Plain Text Продолжительность : 2 ч. 6 м. Битрейт : 57 бит/сек Частота кадров : 0,209 кадр/сек Count of elements : 1589 Размер потока : 53,8 Кбайт (0%) Заголовок : Full SRT Язык : English Default : Нет Forced : Нет Текст #9 Идентификатор : 19 Формат : UTF-8 Идентификатор кодека : S_TEXT/UTF8 Идентификатор кодека/Информация : UTF-8 Plain Text Продолжительность : 2 ч. 7 м. Битрейт : 65 бит/сек Частота кадров : 0,251 кадр/сек Count of elements : 1928 Размер потока : 61,0 Кбайт (0%) Заголовок : Full SDH SRT Язык : English Default : Нет Forced : Нет Меню 00:00:00.000 : en:Chapter 01 00:07:55.349 : en:Chapter 02 00:14:48.387 : en:Chapter 03 00:26:48.565 : en:Chapter 04 00:33:54.198 : en:Chapter 05 00:42:14.114 : en:Chapter 06 00:49:19.665 : en:Chapter 07 00:57:33.199 : en:Chapter 08 01:05:10.197 : en:Chapter 09 01:17:03.118 : en:Chapter 10 01:26:40.987 : en:Chapter 11 01:32:11.108 : en:Chapter 12 01:40:15.509 : en:Chapter 13 01:47:44.416 : en:Chapter 14 01:53:30.220 : en:Chapter 15 02:05:37.363 : en:Chapter 16
[+] Скриншоты
Релиз от: OldGamer

Всего файлов в раздаче: 1 
Подземелья.и.драконы.Честь.среди.воров.Dungeons.&.Dragons.Honor.Among.Thieves.2023.BDRip-HEVC.1080p.mkv11.32 GB

Похожие раздачи по запросу - Подземелья
2024-02-04 magnet Подземелья и драконы: Честь среди воров / Dungeons & Dragons: Honor Among Thieves (2023) BDRip-AVC от DoMiNo & селезень | D | Red Head Sound, SDI Media / IYUNO SDI Group 2.96 GB ↑ 0 ↓ 1
2023-06-01 magnet Подземелья и драконы: Честь среди воров / Dungeons & Dragons: Honor Among Thieves (2023) BDRip от MegaPeer | D 1.46 GB ↑ 0 ↓ 0
2023-05-03 magnet Подземелья и драконы: Честь среди воров / Dungeons & Dragons: Honor Among Thieves (2023) WEB-DL 1080p от New-Team | NewComers 8.68 GB ↑ 0 ↓ 0
2023-05-03 magnet Подземелья и драконы: Честь среди воров / Dungeons & Dragons: Honor Among Thieves (2023) WEB-DL 720p от ExKinoRay | NewComers 3.98 GB ↑ 1 ↓ 0

Комментарии


Зарегистрируйтесь чтобы добавить комментарий
Торрент клиент
byTorrent - программа для загрузки торрент-файлов.

Скачать byTorrent.exe (1,5 МБ)

Скачать byTorrent.zip (0,6 МБ)

Поддержи torrent.by
российских рублей
(300 российских рублей это 4$)

Обратная связь rss

End game ©