↑↓torrent.by
Поиск
Логин:  Регистрация
Пароль:

Пчеловод / Бджоляр / The Beekeeper (2024) WEB-DL-HEVC 2160p | 4K | SDR | D | UKR

download Скачать торрент-файл   magnet Магнитная ссылка Размер: 12.42 GB Добавлен: 2024-02-02 17:00
Пиры будут получены из сети DHT
Последний сидер был замечен 2024-02-16 21:45
Информация о фильме Название: Пчеловод Оригинальное название: The Beekeeper Год выхода: 2024 Жанр: боевик, криминал Режиссер: Дэвид Эйр В ролях: Джейсон Стэйтем, Эмми Рейвер-Лэмпман, Бобби Надери, Джош Хатчерсон, Джереми Айронс, Дэвид Уиттс, Михаэль Эпп, Тейлор Джеймс, Филишия Рашад, Джемма Редгрейв О фильме: Адам Клэй живет в тихом пригороде, занимается разведением пчёл и не распространяется о своей прошлой жизни. Он дружит с пожилой соседкой миссис Паркер, у которой арендует сарай. Однажды миссис Паркер становится жертвой кибермошенников, которые похищают деньги со всех её счетов. Не в силах вынести такой удар, женщина сводит счёты с жизнью. Осознав, что закон в данной ситуации бессилен, Адам решает применить все свои боевые навыки, чтобы вычислить преступников и отомстить. Страна: США, Великобритания Студия: Cedar Park Entertainment, Miramax Films, Punch Palace Productions Продолжительность: 01:45:14 Перевод: Дублированный | ААА Sound (Украинский) Файл Кодек: H.265 Качество: WEB-DL 2160p Видео: HEVC, 3840x1600 (2.40:1), 23.976 fps, 15 Mb/s Аудио 1: E-AC3, 48.0 kHz, 6 ch, 640 kb/s | UKR Аудио 2: AC3, 48.0 kHz, 6 ch, 640 kb/s | UKR Аудио 3: E-AC3, 48.0 kHz, 6 ch, 640 kb/s | ENG Субтитры: английские (full, SDH)
[+] MIGeneral Unique ID : 11836764865117378470145060372748718126 (0x8E7AD90BDFDF2F9EE057F797B84502E) Complete name : The Beekeeper (2024) WEB-DL 2160p Ukr_Eng .mkv Format : Matroska Format version : Version 4 File size : 12.4 GiB Duration : 1 h 45 min Overall bit rate : 16.9 Mb/s Movie name : The Beekeeper (2024) Encoded date : UTC 2024-02-01 14:33:33 Writing application : mkvmerge v82.0 ('I'm The President') 64-bit Writing library : libebml v1.4.5 + libmatroska v1.7.1 Cover : Yes Attachments : Cover.jpg Video ID : 1 Format : HEVC Format/Info : High Efficiency Video Coding Format profile : Main@L5@Main Codec ID : V_MPEGH/ISO/HEVC Duration : 1 h 45 min Bit rate : 15.0 Mb/s Width : 3 840 pixels Height : 1 600 pixels Display aspect ratio : 2.40:1 Frame rate mode : Constant Frame rate : 23.976 (24000/1001) FPS Color space : YUV Chroma subsampling : 4:2:0 Bit depth : 8 bits Bits/(Pixel*Frame) : 0.102 Stream size : 11.0 GiB (89%) Default : Yes Forced : No Color range : Limited Color primaries : BT.709 Transfer characteristics : BT.709 Matrix coefficients : BT.709 Audio #1 ID : 2 Format : E-AC-3 Format/Info : Enhanced AC-3 Commercial name : Dolby Digital Plus Codec ID : A_EAC3 Duration : 1 h 45 min Bit rate mode : Constant Bit rate : 640 kb/s Channel(s) : 6 channels Channel layout : L R C LFE Ls Rs Sampling rate : 48.0 kHz Frame rate : 31.250 FPS (1536 SPF) Compression mode : Lossy Stream size : 482 MiB (4%) Title : DUB (ААА Sound) Language : Ukrainian Service kind : Complete Main Default : Yes Forced : No Audio #2 ID : 3 Format : AC-3 Format/Info : Audio Coding 3 Commercial name : Dolby Digital Codec ID : A_AC3 Duration : 1 h 45 min Bit rate mode : Constant Bit rate : 640 kb/s Channel(s) : 6 channels Channel layout : L R C LFE Ls Rs Sampling rate : 48.0 kHz Frame rate : 31.250 FPS (1536 SPF) Compression mode : Lossy Stream size : 482 MiB (4%) Title : DUB (ААА Sound) Language : Ukrainian Service kind : Complete Main Default : No Forced : No Audio #3 ID : 4 Format : E-AC-3 Format/Info : Enhanced AC-3 Commercial name : Dolby Digital Plus Codec ID : A_EAC3 Duration : 1 h 45 min Bit rate mode : Constant Bit rate : 640 kb/s Channel(s) : 6 channels Channel layout : L R C LFE Ls Rs Sampling rate : 48.0 kHz Frame rate : 31.250 FPS (1536 SPF) Compression mode : Lossy Stream size : 482 MiB (4%) Title : Original Language : English Service kind : Complete Main Default : No Forced : No Text #1 ID : 5 Format : UTF-8 Codec ID : S_TEXT/UTF8 Codec ID/Info : UTF-8 Plain Text Duration : 1 h 36 min Bit rate : 63 b/s Count of elements : 1504 Stream size : 44.5 KiB (0%) Title : Full Language : English Default : No Forced : No Text #2 ID : 6 Format : UTF-8 Codec ID : S_TEXT/UTF8 Codec ID/Info : UTF-8 Plain Text Duration : 1 h 39 min Bit rate : 73 b/s Count of elements : 1830 Stream size : 53.3 KiB (0%) Title : SDH Language : English Default : No Forced : No
[+] Скриншоты

Всего файлов в раздаче: 1 
The Beekeeper (2024) WEB-DL 2160p Ukr_Eng [Hurtom].mkv12.42 GB

Похожие раздачи по запросу - Пчеловод
2024-02-24 magnet Пчеловод / The Beekeeper (2024) WEB-DLRip-AVC от DoMiNo & селезень | P | TVShows, Jaskier 2.20 GB ↑ 0 ↓ 2
2024-02-24 magnet Пчеловод / The Beekeeper (2024) WEB-DLRip от DoMiNo & селезень | P | TVShows 1.46 GB ↑ 0 ↓ 0
2024-02-10 magnet Пчеловод / The Beekeeper (2024) WEB-DL 2160p | 4K | SDR | TVShows, Jaskier, ViruseProject 12.56 GB ↑ 1 ↓ 0
2024-02-09 magnet Пчеловод / The Beekeeper (2024) WEB-DL 1080p от селезень | P, P2 | TVShows, Jaskier, ViruseProject 7.93 GB ↑ 0 ↓ 0
2024-02-03 magnet Пчеловод / The Beekeeper (2024) WEB-DL 2160p | 4K | HDR10+ | Jaskier, ViruseProject 20.10 GB ↑ 0 ↓ 2
2024-02-03 magnet Пчеловод / The Beekeeper (2024) WEB-DL 2160p | 4K | HDR | Dolby Vision Profile 8 | Jaskier, ViruseProject 20.11 GB ↑ 0 ↓ 0
2024-02-03 magnet Пчеловод / The Beekeeper (2024) WEB-DLRip-AVC | КПК | P | Jaskier 525.52 MB ↑ 0 ↓ 0

Комментарии


Зарегистрируйтесь чтобы добавить комментарий
Торрент клиент
byTorrent - программа для загрузки торрент-файлов.

Скачать byTorrent.exe (1,5 МБ)

Скачать byTorrent.zip (0,6 МБ)

Поддержи torrent.by
российских рублей
(300 российских рублей это 4$)

Обратная связь rss

End game ©