↑↓torrent.by
Поиск
Логин:  Регистрация
Пароль:

День благодарения / Thanksgiving (2023) BDRemux 1080p | P, A

download Скачать торрент-файл   magnet Магнитная ссылка Размер: 22.77 GB Добавлен: 2024-02-02 17:00
Пиры будут получены из сети DHT
Последний сидер был замечен 2024-02-02 19:55
Информация о фильме Название: День благодарения Оригинальное название: Thanksgiving Год выхода: 2023 Жанр: Ужасы Режиссер: Элай Рот В ролях: Нелл Верлак, Патрик Демпси, Гэбриел Дэвенпорт, Джейлен Томас Брукс, Майло Манхейм, Дженна Уоррен, Рик Хоффман, Карен Клише, Эддисон Рэй, Тай Олссон, Джина Гершон, Линн Гриффин, Дерек МакГрат, Кэтерин Троуэлл, Аманда Баркер О фильме: Плимут, штат Массачусетс. Давка в торговом центре в Чёрную пятницу, совпавшую с Днём благодарения — празднике, зародившемся в этом городке, — унесла жизни нескольких человек. Год спустя, надев маску первого местного губернатора Джона Карвера и украв из музея его топор, неизвестный начинает охоту на виновных в той трагедии. Страна: США , Канада , Австралия Студия: Cream Productions, Dragonfly Entertainment, Electromagnetic Productions, Ethereal Visage Productions, Spyglass Media Group, TriStar Pictures, TSG Entertainment Продолжительность: 01:45:59 Перевод: Профессиональный (многоголосый, закадровый) | TVShows | 18+ Профессиональный (многоголосый, закадровый) | NewStudio | 18+ Авторский (одноголосый, закадровый) | А. Пронин | 18+ Файл Формат: MKV Качество: BDRemux 1080p Видео: MPEG-4 AVC Video, 1920x1080 (16:9), 23.976 fps, 27.1 Mbps Аудио 1: AC3 Dolby Digital, 5.1 ch, 48 kHz, 384 kbps | MVO, TVShows Аудио 2: AC3 Dolby Digital, 5.1 ch, 48 kHz, 448 kbps | MVO, NewStudio Аудио 3: AC3 Dolby Digital, 5.1 ch, 48 kHz, 448 kbps | AVO, Пронин Аудио 4: DTS-HD MA Audio, 6 ch, 48 kHz, 2215 kbps | Original Аудио 5: AC3 Dolby Digital, 2.0 ch, 48 kHz, 192 kbps | Commentary Субтитры: Русские (Forced, Full), английские
[+] Скриншоты
[+] Инфо-файлGeneral Unique ID : 68282072074092686238650317787526019230 (0x335EA612FCDDF91D38EE11FC2853389E) Complete name : Thanksgiving.2023.BDRemux.1080p.mkv Format : Matroska Format version : Version 4 File size : 22.8 GiB Duration : 1 h 45 min Overall bit rate mode : Variable Overall bit rate : 30.8 Mb/s Frame rate : 23.976 FPS Movie name : Thanksgiving 2023 BDRemux 1080p Encoded date : 2024-02-01 11:50:43 UTC Writing application : mkvmerge v79.0 ('Funeral Pyres') 64-bit Writing library : libebml v1.4.4 + libmatroska v1.7.1 Cover : Yes Attachments : cover.jpg Video ID : 1 Format : AVC Format/Info : Advanced Video Codec Format profile : High@L4.1 Format settings : CABAC / 2 Ref Frames Format settings, CABAC : Yes Format settings, Reference frames : 2 frames Format settings, GOP : M=1, N=10 Codec ID : V_MPEG4/ISO/AVC Duration : 1 h 45 min Bit rate mode : Variable Bit rate : 27.1 Mb/s Width : 1 920 pixels Height : 1 080 pixels Display aspect ratio : 16:9 Frame rate mode : Constant Frame rate : 23.976 (24000/1001) FPS Color space : YUV Chroma subsampling : 4:2:0 Bit depth : 8 bits Scan type : Progressive Bits/(Pixel*Frame) : 0.544 Time code of first frame : 00:59:58:00 Stream size : 20.0 GiB (88%) Language : English Default : Yes Forced : No Audio #1 ID : 2 Format : AC-3 Format/Info : Audio Coding 3 Commercial name : Dolby Digital Codec ID : A_AC3 Duration : 1 h 45 min Bit rate mode : Constant Bit rate : 384 kb/s Channel(s) : 6 channels Channel layout : L R C LFE Ls Rs Sampling rate : 48.0 kHz Frame rate : 31.250 FPS (1536 SPF) Compression mode : Lossy Stream size : 291 MiB (1%) Title : Russian MVO TVShows Language : Russian Service kind : Complete Main Default : Yes Forced : No Audio #2 ID : 3 Format : AC-3 Format/Info : Audio Coding 3 Commercial name : Dolby Digital Codec ID : A_AC3 Duration : 1 h 45 min Bit rate mode : Constant Bit rate : 448 kb/s Channel(s) : 6 channels Channel layout : L R C LFE Ls Rs Sampling rate : 48.0 kHz Frame rate : 31.250 FPS (1536 SPF) Compression mode : Lossy Stream size : 340 MiB (1%) Title : Russian MVO NewStudio 18 + Language : Russian Service kind : Complete Main Default : No Forced : No Audio #3 ID : 4 Format : AC-3 Format/Info : Audio Coding 3 Commercial name : Dolby Digital Codec ID : A_AC3 Duration : 1 h 45 min Bit rate mode : Constant Bit rate : 448 kb/s Channel(s) : 6 channels Channel layout : L R C LFE Ls Rs Sampling rate : 48.0 kHz Frame rate : 31.250 FPS (1536 SPF) Compression mode : Lossy Stream size : 340 MiB (1%) Title : Russian AVO А. Пронин Language : Russian Service kind : Complete Main Default : No Forced : No Audio #4 ID : 5 Format : DTS XLL Format/Info : Digital Theater Systems Commercial name : DTS-HD Master Audio Codec ID : A_DTS Duration : 1 h 45 min Bit rate mode : Variable Bit rate : 2 215 kb/s Channel(s) : 6 channels Channel layout : C L R Ls Rs LFE Sampling rate : 48.0 kHz Frame rate : 93.750 FPS (512 SPF) Bit depth : 16 bits Compression mode : Lossless Stream size : 1.64 GiB (7%) Title : English Original Language : English Default : No Forced : No Audio #5 ID : 6 Format : AC-3 Format/Info : Audio Coding 3 Commercial name : Dolby Digital Codec ID : A_AC3 Duration : 1 h 45 min Bit rate mode : Constant Bit rate : 192 kb/s Channel(s) : 2 channels Channel layout : L R Sampling rate : 48.0 kHz Frame rate : 31.250 FPS (1536 SPF) Compression mode : Lossy Stream size : 146 MiB (1%) Title : Commentary by Director Eli Roth, Writer Jeff Rendell and Producer Jeff Rendell Language : English Service kind : Complete Main Default : No Forced : No Text #1 ID : 7 Format : UTF-8 Codec ID : S_TEXT/UTF8 Codec ID/Info : UTF-8 Plain Text Duration : 1 h 34 min Bit rate : 3 b/s Frame rate : 0.010 FPS Count of elements : 54 Stream size : 2.18 KiB (0%) Title : Russian forced Language : Russian Default : Yes Forced : No Text #2 ID : 8 Format : UTF-8 Codec ID : S_TEXT/UTF8 Codec ID/Info : UTF-8 Plain Text Duration : 1 h 45 min Bit rate : 97 b/s Frame rate : 0.209 FPS Count of elements : 1321 Stream size : 75.0 KiB (0%) Title : Russian full v.1 Language : Russian Default : No Forced : No Text #3 ID : 9 Format : UTF-8 Codec ID : S_TEXT/UTF8 Codec ID/Info : UTF-8 Plain Text Duration : 1 h 45 min Bit rate : 99 b/s Frame rate : 0.238 FPS Count of elements : 1509 Stream size : 76.9 KiB (0%) Title : Russian full v.2 Language : Russian Default : No Forced : No Text #4 ID : 10 Format : UTF-8 Codec ID : S_TEXT/UTF8 Codec ID/Info : UTF-8 Plain Text Duration : 1 h 44 min Bit rate : 60 b/s Frame rate : 0.209 FPS Count of elements : 1305 Stream size : 46.4 KiB (0%) Title : English full Language : English Default : No Forced : No Text #5 ID : 11 Format : UTF-8 Codec ID : S_TEXT/UTF8 Codec ID/Info : UTF-8 Plain Text Duration : 1 h 44 min Bit rate : 70 b/s Frame rate : 0.246 FPS Count of elements : 1549 Stream size : 54.1 KiB (0%) Title : English SDH Language : English Default : No Forced : No Text #6 ID : 12 Format : UTF-8 Codec ID : S_TEXT/UTF8 Codec ID/Info : UTF-8 Plain Text Duration : 1 h 45 min Bit rate : 148 b/s Frame rate : 0.372 FPS Count of elements : 2358 Stream size : 115 KiB (0%) Title : Commentary by Director Eli Roth, Writer Jeff Rendell and Producer Jeff Rendell Language : English Default : No Forced : No Menu 00:00:00.000 : en:Chapter 01 00:04:34.899 : en:Chapter 02 00:13:37.399 : en:Chapter 03 00:19:25.038 : en:Chapter 04 00:26:19.744 : en:Chapter 05 00:30:52.267 : en:Chapter 06 00:37:54.272 : en:Chapter 07 00:44:57.694 : en:Chapter 08 00:50:09.381 : en:Chapter 09 00:56:48.279 : en:Chapter 10 01:00:53.650 : en:Chapter 11 01:07:13.112 : en:Chapter 12 01:13:08.133 : en:Chapter 13 01:20:01.296 : en:Chapter 14 01:28:43.192 : en:Chapter 15 01:34:18.861 : en:Chapter 16

Всего файлов в раздаче: 1 
Thanksgiving.2023.BDRemux.1080p.mkv22.77 GB

Похожие раздачи по запросу - День
2024-02-23 magnet Футбол. Лига Чемпионов 2023-2024. 1/8 финала. Первые матчи. День 4 Обзор [21.02] (2024) WEBRip 1080р 2.32 GB ↑ 0 ↓ 0
2024-02-15 magnet Футбол. Лига Чемпионов 2023-2024. 1/8 финала. Первые матчи. 2-й день. Обзор [14.02] (2024) IPTVRip 720р 1022.99 MB ↑ 0 ↓ 0
2024-02-15 magnet День святого Валентина / The Valentine Competition (2021) WEB-DLRip от New-Team | P 1.46 GB ↑ 0 ↓ 0
2024-02-09 magnet Генри Элкайр - Строим тело. 10 минут в день и вы будете иметь тело мечты (2023) EPUB, PDF 10.89 MB ↑ 0 ↓ 0
2024-02-05 magnet Снукер. German Masters 2024. День 6 [03.02] (2024) WEBRip 1080p | 50 fps 12.06 GB ↑ 0 ↓ 0
2024-02-01 magnet День благодарения / Thanksgiving (2023) HDRip от ExKinoRay | P 747.07 MB ↑ 0 ↓ 0
2024-01-31 magnet День благодарения / Thanksgiving (2023) BDRip 720p от DoMiNo & селезень | P, L 4.02 GB ↑ 0 ↓ 0

Комментарии


Зарегистрируйтесь чтобы добавить комментарий
Торрент клиент
byTorrent - программа для загрузки торрент-файлов.

Скачать byTorrent.exe (1,5 МБ)

Скачать byTorrent.zip (0,6 МБ)

Поддержи torrent.by
российских рублей
(300 российских рублей это 4$)

Обратная связь rss

End game ©