↑↓torrent.by
Поиск
Логин:  Регистрация
Пароль:

Paul McCartney - Band On The Run [24-bit Hi-Res, Underdubbed Mixes] (1973/2024) FLAC

download Скачать торрент-файл   magnet Магнитная ссылка Размер: 803.74 MB Добавлен: 2024-02-02 17:00
Пиры будут получены из сети DHT
Последний сидер был замечен сегодня в 09:44
Название: Band On The Run (Underdubbed Mixes) Исполнитель: Paul McCartney Год: 1973/2024 Жанр: Rock Издатель (лейбл): Paul McCartney Catalog Продолжительность: 00:41:27 Формат/Кодек: FLAC Тип рипа: Tracks Битрейт аудио: Lossless Разрядность: 24 Bit/96 kHz
[+] Трек-лист 01. Band On The Run (Underdubbed Mix) 02. Mamunia (Underdubbed Mix) 03. No Words (Underdubbed Mix) 04. Jet (Underdubbed Mix) 05. Bluebird (Underdubbed Mix) 06. Mrs. Vandebilt (Underdubbed Mix) 07. Nineteen Hundred And Eighty Five (Underdubbed Mix) 08. Picasso’s Last Words (Drink To Me) (Underdubbed Mix) 09. Let Me Roll It (Underdubbed Mix)
[+] DRM foobar2000 1.5.5 / Замер динамического диапазона (DR) 1.1.1 ------------------------------------------------------------------------------- Анализ: Paul Mccartney / Band On The Run -------------------------------------------------------------------------------- DR Пики RMS Продолжительность трека -------------------------------------------------------------------------------- DR10 -0.90 дБ -13.08 дБ 5:17 01-Band On The Run (Underdubbed Mix) DR13 -0.93 дБ -15.20 дБ 4:57 02-Mamunia (Underdubbed Mix) DR10 -1.40 дБ -13.46 дБ 2:39 03-No Words (Underdubbed Mix) DR10 -0.90 дБ -12.69 дБ 4:13 04-Jet (Underdubbed Mix) DR12 -0.90 дБ -14.10 дБ 3:27 05-Bluebird (Underdubbed Mix) DR11 -0.90 дБ -13.13 дБ 4:40 06-Mrs. Vandebilt (Underdubbed Mix) DR10 -0.90 дБ -12.54 дБ 5:18 07-Nineteen Hundred And Eighty Five (Underdubbed Mix) DR13 -0.90 дБ -15.93 дБ 5:59 08-Picasso’s Last Words (Drink To Me) (Underdubbed Mix) DR10 -0.90 дБ -12.59 дБ 4:57 09-Let Me Roll It (Underdubbed Mix) -------------------------------------------------------------------------------- Количество треков: 9 Реальные значения DR: DR11 Частота: 96000 Гц Каналов: 2 Разрядность: 24 Битрейт: 2722 кбит/с Кодек: FLAC ================================================================================
Время раздачи: 24/7 (минимум до появления первых 3-5 скачавших, на раздачи не возвращаюсь) Первое правило участника файлообмена: "Скачал сам - дай скачать другому!"

Всего файлов в раздаче: 10 
01. Band On The Run (Underdubbed Mix).flac104.07 MB
02. Mamunia (Underdubbed Mix).flac93.61 MB
03. No Words (Underdubbed Mix).flac50.91 MB
04. Jet (Underdubbed Mix).flac84.01 MB
05. Bluebird (Underdubbed Mix).flac64.96 MB
06. Mrs. Vandebilt (Underdubbed Mix).flac90.29 MB
07. Nineteen Hundred And Eighty Five (Underdubbed Mix).flac104.21 MB
08. Picasso’s Last Words (Drink to Me) (Underdubbed Mix).flac114.85 MB
09. Let Me Roll It (Underdubbed Mix).flac96.67 MB
cover.jpg160.02 kB

Похожие раздачи по запросу - Paul
2024-02-02 magnet Paul McCartney - Band On The Run [Underdubbed Mixes] (1973/2024) MP3 96.52 MB ↑ 0 ↓ 0
2023-09-05 magnet Paul Mauriat - Шедевры Инструментальной Музыки (2001) МР3 165.88 MB ↑ 0 ↓ 0
2023-04-17 magnet Убойный ланч Пола Дуда / Paul Dood's Deadly Lunch Break (2021) WEB-DLRip от toxics | D 743.87 MB ↑ 0 ↓ 0
2022-12-03 magnet Paul McCartney - The 7” Singles (2022) MP3 1.43 GB ↑ 1 ↓ 0

Комментарии


Зарегистрируйтесь чтобы добавить комментарий
Торрент клиент
byTorrent - программа для загрузки торрент-файлов.

Скачать byTorrent.exe (1,5 МБ)

Скачать byTorrent.zip (0,6 МБ)

Поддержи torrent.by
российских рублей
(300 российских рублей это 4$)

Обратная связь rss

End game ©