↑↓torrent.by
Поиск
Логин:  Регистрация
Пароль:

Клоуны апокалипсиса / Apocalypse Clown (2023) WEB-DLRip-AVC от DoMiNo & селезень | P1

download Скачать торрент-файл   magnet Магнитная ссылка Размер: 1.44 GB Добавлен: 2024-02-02 17:00
Пиры будут получены из сети DHT
Последний сидер был замечен 2024-02-10 00:16
Информация о фильме Название: Клоуны апокалипсиса Оригинальное название: Apocalypse Clown Год выхода: 2023 Жанр: Комедия Режиссер: Джордж Кэйн В ролях: Дэвид Эрл, Натали Паламидес, Эми Де Брюн, Фионн Фоли, Тайг Мерфи, Айван Кэй, Эрин МакГати, Тара Флинн, Маура Фоли, Поллианна Макинтош Описание: Земля на пороге гибели. Целые города объяты хаосом. И пороком. Десятками разных пороков. Каждый порядочный гражданин пускается напоследок во все тяжкие. В этот судьбоносный для человечества момент нам как никогда нужны настоящие супергерои. И они нашлись! Фантастическая четверка! Четыре безумных, известных только своим мамам, клоуна объявляют свое последнее спасительное турне. Хотя их никто об этом не просил. Страна: Ирландия Студия: BCP Asset Management, Fastnet Films Продолжительность: 01:42:27 Перевод: Профессиональный (одноголосый, закадровый) | Кураж-Бамбей 18 + Субтитры: Русские (Forced) Файл Формат: Matroska Качество: WEB-DLRip-AVC Видео: 1024x428 at 24.000 fps, x264@L4.1, ~1631 kbps Аудио: AC3, 6 ch, ~384 kbps - | Русский | Формат субтитров: softsub (SRT) ***Рип от: -=DoMiNo=-
[+] M/IGeneral Unique ID : 178457179717580882008835092729946210786 (0x86419A455CFA4CE0A6772F7B5D5481E2) Complete name : I:Apocalypse.Clown.2023.VO.WEB-DLRip.x264.seleZen.mkv Format : Matroska Format version : Version 4 File size : 1.44 GiB Duration : 1 h 42 min Overall bit rate : 2 016 kb/s Frame rate : 24.000 FPS Movie name : Apocalypse.Clown.2023.VO.WEB-DLRip.x264.seleZen Encoded date : 2024-02-02 10:38:10 UTC Writing application : mkvmerge v82.0 ('I'm The President') 64-bit Writing library : libebml v1.4.5 + libmatroska v1.7.1 Cover : Yes Attachments : cover.jpg / small_cover.jpg Video ID : 1 Format : AVC Format/Info : Advanced Video Codec Format profile : High@L4.1 Format settings : CABAC / 14 Ref Frames Format settings, CABAC : Yes Format settings, Reference : 14 frames Codec ID : V_MPEG4/ISO/AVC Duration : 1 h 42 min Bit rate : 1 631 kb/s Width : 1 024 pixels Height : 428 pixels Display aspect ratio : 2.40:1 Frame rate mode : Constant Frame rate : 24.000 FPS Color space : YUV Chroma subsampling : 4:2:0 Bit depth : 8 bits Scan type : Progressive Bits/(Pixel*Frame) : 0.155 Stream size : 1.17 GiB (81%) Title : -=DoMiNo=- Writing library : x264 core 164 r3173 -DoMiNo Encoding settings : cabac=1 / ref=14 / deblock=1:-2:-1 / analyse=0x3:0x133 / me=umh / subme=10 / psy=1 / psy_rd=1.00:0.15 / mixed_ref=1 / me_range=32 / chroma_me=1 / trellis=2 / 8x8dct=1 / cqm=0 / deadzone=21,11 / fast_pskip=0 / chroma_qp_offset=-3 / threads=17 / lookahead_threads=3 / sliced_threads=0 / nr=0 / decimate=0 / interlaced=0 / bluray_compat=0 / constrained_intra=0 / bframes=10 / b_pyramid=2 / b_adapt=2 / b_bias=0 / direct=1 / weightb=1 / open_gop=0 / weightp=2 / keyint=250 / keyint_min=24 / scenecut=40 / intra_refresh=0 / rc_lookahead=60 / rc=crf / mbtree=0 / crf=18.5 / qcomp=0.60 / qpmin=0 / qpmax=69 / qpstep=4 / vbv_maxrate=50000 / vbv_bufsize=62500 / crf_max=0.0 / nal_hrd=none / filler=0 / ip_ratio=1.35 / pb_ratio=1.30 / aq=1:0.90 Language : English Default : Yes Forced : No Color range : Limited Color primaries : BT.709 Transfer characteristics : BT.709 Matrix coefficients : BT.709 Audio ID : 2 Format : AC-3 Format/Info : Audio Coding 3 Commercial name : Dolby Digital Codec ID : A_AC3 Duration : 1 h 42 min Bit rate mode : Constant Bit rate : 384 kb/s Channel(s) : 6 channels Channel layout : L R C LFE Ls Rs Sampling rate : 48.0 kHz Frame rate : 31.250 FPS (1536 SPF) Compression mode : Lossy Stream size : 281 MiB (19%) Title : VO 18+ Language : Russian Service kind : Complete Main Default : Yes Forced : No Text ID : 3 Format : UTF-8 Codec ID : S_TEXT/UTF8 Codec ID/Info : UTF-8 Plain Text Duration : 1 h 16 min Bit rate : 1 b/s Frame rate : 0.003 FPS Count of elements : 13 Stream size : 949 Bytes (0%) Title : Forced Language : Russian Default : No Forced : No Menu 00:00:00.000 : en:Глава 01 00:05:50.000 : en:Глава 02 00:11:40.000 : en:Глава 03 00:17:30.000 : en:Глава 04 00:23:20.000 : en:Глава 05 00:29:10.000 : en:Глава 06 00:35:00.000 : en:Глава 07 00:40:50.000 : en:Глава 08 00:46:40.000 : en:Глава 09 00:52:30.000 : en:Глава 10 00:58:20.000 : en:Глава 11 01:04:10.000 : en:Глава 12 01:10:00.000 : en:Глава 13 01:15:50.000 : en:Глава 14 01:21:40.000 : en:Глава 15 01:27:30.000 : en:Глава 16 01:33:20.000 : en:Глава 17 01:39:10.000 : en:Глава 18
Релиз: Присоединяйся к: Кликай на баннеры.

Всего файлов в раздаче: 1 
Apocalypse.Clown.2023.VO.WEB-DLRip.x264.seleZen.mkv1.44 GB

Похожие раздачи по запросу - Клоуны
2024-02-04 magnet Клоуны апокалипсиса / Apocalypse Clown (2023) WEB-DLRip от ELEKTRI4KA | P1 2.18 GB ↑ 0 ↓ 0
2024-02-02 magnet Клоуны апокалипсиса / Apocalypse Clown (2023) WEB-DLRip от MegaPeer | P1 1.46 GB ↑ 0 ↓ 0
2024-02-02 magnet Клоуны апокалипсиса / Apocalypse Clown (2023) WEB-DL 1080p | P1 4.42 GB ↑ 1 ↓ 0
2022-01-19 magnet Клоуны - Короли смеха. Олег Попов (2003) TVRip 201.36 MB ↑ 0 ↓ 0
2022-01-19 magnet Клоуны - Короли смеха. Вячеслав Полунин (2003) TVRip 443.80 MB ↑ 0 ↓ 0

Кто качает (только для создателя раздачи и модераторов): Локальные пиры отсутствуют

Комментарии


Зарегистрируйтесь чтобы добавить комментарий
Торрент клиент
byTorrent - программа для загрузки торрент-файлов.

Скачать byTorrent.exe (1,5 МБ)

Скачать byTorrent.zip (0,6 МБ)

Поддержи torrent.by
российских рублей
(300 российских рублей это 4$)

Обратная связь rss

End game ©