↑↓torrent.by
Поиск
Логин:  Регистрация
Пароль:

Клоуны апокалипсиса / Apocalypse Clown (2023) WEB-DL 1080p | P1

download Скачать торрент-файл   magnet Магнитная ссылка Размер: 4.42 GB Раздают: 1 Качают: 0 Добавлен: 2024-02-02 17:00
Пиры будут получены из сети DHT
Последний сидер был замечен сегодня в 07:09
Информация о фильме Название: Клоуны апокалипсиса Оригинальное название: Apocalypse Clown Год выпуска: 2023 Жанр: комедия Выпущено: Ирландия / Fastnet Films, BCP Asset Management Режиссер: Джордж Кэйн В ролях:Дэвид Эрл, Натали Паламидес, Эми Де Брюн, Фионн Фоли, Тайг Мерфи, Айван Кэй, Tony Cantwell, Тара Флинн, Маура Фоли, Martin McDonagh Описание: Земля на пороге гибели. Целые города объяты хаосом. И пороком. Десятками разных пороков. Каждый порядочный гражданин пускается напоследок во все тяжкие. В этот судьбоносный для человечества момент нам как никогда нужны настоящие супергерои. И они нашлись! Фантастическая четверка! Четыре безумных, известных только своим мамам, клоуна объявляют свое последнее спасительное турне. Хотя их никто об этом не просил. Возраст: 18+ (зрителям, достигшим 18 лет. запрещено для детей) Продолжительность: 01:44:33 Перевод: Профессиональный (одноголосый, закадровый) | Кураж-Бамбей Субтитры: Отсутствуют Файл Формат: MKV Качество: WEB-DL 1080p Видео: AVC/H.264, 1920x804, ~5000 Kbps Аудио 1: E-AC3, 6 ch, 384 Kbps - Русский (VO) Аудио 2: E-AC3, 6 ch, 384 Kbps - Русский (VO, 18+) Аудио 3: E-AC3, 6 ch, 384 Kbps - Английский Релиз от: karfagen1975
[+] MediaInfo:General Unique ID : 281961234040332418378889570062908298725 (0xD41FC2252819C4A7A8F38486896095E5) Complete name : Apocalypse.Clown.2023.WEB-DL.1080p.mkv Format : Matroska Format version : Version 4 File size : 4.42 GiB Duration : 1 h 44 min Overall bit rate : 6 048 kb/s Frame rate : 24.000 FPS Encoded date : 2024-02-01 14:27:12 UTC Writing application : mkvmerge v75.0.0 ('Goliath') 64-bit Writing library : libebml v1.4.4 + libmatroska v1.7.1 Video ID : 1 Format : AVC Format/Info : Advanced Video Codec Format profile : High@L4 Format settings : CABAC / 3 Ref Frames Format settings, CABAC : Yes Format settings, Reference frames : 3 frames Codec ID : V_MPEG4/ISO/AVC Duration : 1 h 44 min Bit rate : 5 000 kb/s Width : 1 920 pixels Height : 804 pixels Display aspect ratio : 2.40:1 Frame rate mode : Constant Frame rate : 24.000 FPS Color space : YUV Chroma subsampling : 4:2:0 Bit depth : 8 bits Scan type : Progressive Bits/(Pixel*Frame) : 0.135 Stream size : 3.57 GiB (81%) Title : Клоуны апокалипсиса (2023) WEB-DL 1080p Writing library : x264 core 164 r3095 baee400 Encoding settings : cabac=1 / ref=4 / deblock=1:-1:-1 / analyse=0x3:0x133 / me=umh / subme=9 / psy=1 / psy_rd=0.40:1.00 / mixed_ref=1 / me_range=24 / chroma_me=1 / trellis=0 / 8x8dct=1 / cqm=0 / deadzone=21,11 / fast_pskip=1 / chroma_qp_offset=-2 / threads=3 / lookahead_threads=1 / sliced_threads=0 / nr=0 / decimate=1 / interlaced=0 / bluray_compat=0 / stitchable=1 / constrained_intra=0 / bframes=8 / b_pyramid=1 / b_adapt=0 / b_bias=0 / direct=3 / weightb=1 / open_gop=0 / weightp=2 / keyint=72 / keyint_min=37 / scenecut=0 / intra_refresh=0 / rc_lookahead=40 / rc=2pass / mbtree=1 / bitrate=5000 / ratetol=1.0 / qcomp=0.80 / qpmin=1 / qpmax=69 / qpstep=4 / cplxblur=20.0 / qblur=0.5 / vbv_maxrate=7500 / vbv_bufsize=10000 / nal_hrd=none / filler=0 / ip_ratio=1.40 / aq=1:1.00 Language : English Default : Yes Forced : No Color range : Limited Color primaries : BT.709 Transfer characteristics : BT.709 Matrix coefficients : BT.709 Audio #1 ID : 2 Format : E-AC-3 Format/Info : Enhanced AC-3 Commercial name : Dolby Digital Plus Codec ID : A_EAC3 Duration : 1 h 44 min Bit rate mode : Constant Bit rate : 384 kb/s Channel(s) : 6 channels Channel layout : L R C LFE Ls Rs Sampling rate : 48.0 kHz Frame rate : 31.250 FPS (1536 SPF) Compression mode : Lossy Stream size : 287 MiB (6%) Title : Кураж-Бамбей Language : Russian Service kind : Complete Main Default : No Forced : No Audio #2 ID : 3 Format : E-AC-3 Format/Info : Enhanced AC-3 Commercial name : Dolby Digital Plus Codec ID : A_EAC3 Duration : 1 h 44 min Bit rate mode : Constant Bit rate : 384 kb/s Channel(s) : 6 channels Channel layout : L R C LFE Ls Rs Sampling rate : 48.0 kHz Frame rate : 31.250 FPS (1536 SPF) Compression mode : Lossy Stream size : 287 MiB (6%) Title : Кураж-Бамбей 18+ Language : Russian Service kind : Complete Main Default : No Forced : No Audio #3 ID : 4 Format : E-AC-3 Format/Info : Enhanced AC-3 Commercial name : Dolby Digital Plus Codec ID : A_EAC3 Duration : 1 h 44 min Bit rate mode : Constant Bit rate : 384 kb/s Channel(s) : 6 channels Channel layout : L R C LFE Ls Rs Sampling rate : 48.0 kHz Frame rate : 31.250 FPS (1536 SPF) Compression mode : Lossy Stream size : 287 MiB (6%) Title : Original Language : English Service kind : Complete Main Default : No Forced : No
[+] Скриншоты
[+] Дополнительные скриншоты:

Всего файлов в раздаче: 1 
Apocalypse.Clown.2023.WEB-DL.1080p.mkv4.42 GB

Похожие раздачи по запросу - Клоуны
2024-02-04 magnet Клоуны апокалипсиса / Apocalypse Clown (2023) WEB-DLRip от ELEKTRI4KA | P1 2.18 GB ↑ 0 ↓ 0
2024-02-02 magnet Клоуны апокалипсиса / Apocalypse Clown (2023) WEB-DLRip от MegaPeer | P1 1.46 GB ↑ 0 ↓ 0
2024-02-02 magnet Клоуны апокалипсиса / Apocalypse Clown (2023) WEB-DLRip-AVC от DoMiNo & селезень | P1 1.44 GB ↑ 0 ↓ 0

Комментарии


Зарегистрируйтесь чтобы добавить комментарий
Торрент клиент
byTorrent - программа для загрузки торрент-файлов.

Скачать byTorrent.exe (1,5 МБ)

Скачать byTorrent.zip (0,6 МБ)

Поддержи torrent.by
российских рублей
(300 российских рублей это 4$)

Обратная связь rss

End game ©