↑↓torrent.by
Поиск
Логин:  Регистрация
Пароль:

13 пришествий дьявола / In the Fire (2023) BDRip 720p от DoMiNo & селезень | D

download Скачать торрент-файл   magnet Магнитная ссылка Размер: 3.28 GB Добавлен: 2024-02-03 05:00
Пиры будут получены из сети DHT
Последний сидер был замечен 2024-02-07 21:46
Информация о фильме Название: 13 пришествий дьявола Оригинальное название: In the Fire Год выхода: 2023 Жанр: Триллер Режиссер: Конор Эллин В ролях: Эмбер Хёрд, Эдуардо Норьега, Лоренцо Макговерн Дзаини, Софи Кэннелл, Лука Кальвани, Яри Гульуччи, Хорхе Мельгар, Эрнесто Молина Самперио О фильме: Молодая врач Грейс Бёрнэм направляется из Нью-Йорка в маленький городок по приглашению матери мальчика, которого местные жители и пастырь подозревают в одержимости дьяволом. Грейс начинает лечить ребенка, пытаясь доказать, что обвинения против него беспочвенны. Однако вскоре с ужасом осознаёт, что ребёнок не так прост. Страна: Италия, США Студия: Angel Oak Films, Iervolino & Lady Bacardi Entertainment, Margate House Films Продолжительность: 01:27:16 Перевод: Дублированный | Мосфильм-Мастер Субтитры: Русские (Full), английские Файл Формат: Matroska Качество: BDRip 720p Видео: 1280x536 at 23.976 fps, x264@L4.1, ~4165 kbps Аудио 1: AC3, 6 ch, ~384 kbps - | Русский | Аудио 2: E-AC3, 6 ch, ~384 kbps - | Русский | Аудио 3: AC3, 6 ch, ~448 kbps - | Английский | Формат субтитров: softsub (SRT) ***Рип от: -=DoMiNo=-
[+] M/IGeneral Unique ID : 198589141524180365520508658407340906051 (0x9566E09F327F6B32A400185222D21643) Complete name : R:In.the.Fire.2023.DUB.BDRip.720p.x264.seleZen.mkv Format : Matroska Format version : Version 4 File size : 3.28 GiB Duration : 1 h 27 min Overall bit rate : 5 384 kb/s Frame rate : 23.976 FPS Movie name : In.the.Fire.2023.DUB.BDRip.720p.x264.seleZen Encoded date : 2024-02-02 12:54:15 UTC Writing application : mkvmerge v82.0 ('I'm The President') 64-bit Writing library : libebml v1.4.5 + libmatroska v1.7.1 Cover : Yes Attachments : cover.jpg / small_cover.jpg Video ID : 1 Format : AVC Format/Info : Advanced Video Codec Format profile : High@L4.1 Format settings : CABAC / 12 Ref Frames Format settings, CABAC : Yes Format settings, Reference : 12 frames Codec ID : V_MPEG4/ISO/AVC Duration : 1 h 27 min Bit rate : 4 165 kb/s Width : 1 280 pixels Height : 536 pixels Display aspect ratio : 2.40:1 Frame rate mode : Constant Frame rate : 23.976 (24000/1001) FPS Color space : YUV Chroma subsampling : 4:2:0 Bit depth : 8 bits Scan type : Progressive Bits/(Pixel*Frame) : 0.253 Stream size : 2.54 GiB (77%) Title : -=DoMiNo=- Writing library : x264 core 164 r3173 -DoMiNo Encoding settings : cabac=1 / ref=12 / deblock=1:-2:-2 / analyse=0x3:0x133 / me=umh / subme=10 / psy=1 / psy_rd=1.05:0.05 / mixed_ref=1 / me_range=32 / chroma_me=1 / trellis=2 / 8x8dct=1 / cqm=0 / deadzone=21,11 / fast_pskip=0 / chroma_qp_offset=-3 / threads=17 / lookahead_threads=4 / sliced_threads=0 / nr=0 / decimate=0 / interlaced=0 / bluray_compat=0 / constrained_intra=0 / bframes=12 / b_pyramid=2 / b_adapt=2 / b_bias=0 / direct=1 / weightb=1 / open_gop=0 / weightp=2 / keyint=250 / keyint_min=23 / scenecut=40 / intra_refresh=0 / rc_lookahead=60 / rc=crf / mbtree=0 / crf=17.0 / qcomp=0.60 / qpmin=0 / qpmax=69 / qpstep=4 / vbv_maxrate=50000 / vbv_bufsize=62500 / crf_max=0.0 / nal_hrd=none / filler=0 / ip_ratio=1.40 / pb_ratio=1.30 / aq=3:0.80 Language : English Default : Yes Forced : No Color range : Limited Color primaries : BT.709 Transfer characteristics : BT.709 Matrix coefficients : BT.709 Audio #1 ID : 2 Format : AC-3 Format/Info : Audio Coding 3 Commercial name : Dolby Digital Codec ID : A_AC3 Duration : 1 h 27 min Bit rate mode : Constant Bit rate : 384 kb/s Channel(s) : 6 channels Channel layout : L R C LFE Ls Rs Sampling rate : 48.0 kHz Frame rate : 31.250 FPS (1536 SPF) Compression mode : Lossy Stream size : 240 MiB (7%) Title : Dub Language : Russian Service kind : Complete Main Default : Yes Forced : No Audio #2 ID : 3 Format : E-AC-3 Format/Info : Enhanced AC-3 Commercial name : Dolby Digital Plus Codec ID : A_EAC3 Duration : 1 h 27 min Bit rate mode : Constant Bit rate : 384 kb/s Channel(s) : 6 channels Channel layout : L R C LFE Ls Rs Sampling rate : 48.0 kHz Frame rate : 31.250 FPS (1536 SPF) Compression mode : Lossy Stream size : 240 MiB (7%) Title : Dub Language : Russian Service kind : Complete Main Default : No Forced : No Audio #3 ID : 4 Format : AC-3 Format/Info : Audio Coding 3 Commercial name : Dolby Digital Codec ID : A_AC3 Duration : 1 h 27 min Bit rate mode : Constant Bit rate : 448 kb/s Channel(s) : 6 channels Channel layout : L R C LFE Ls Rs Sampling rate : 48.0 kHz Frame rate : 31.250 FPS (1536 SPF) Compression mode : Lossy Stream size : 279 MiB (8%) Title : Original Language : English Service kind : Complete Main Default : No Forced : No Text #1 ID : 5 Format : UTF-8 Codec ID : S_TEXT/UTF8 Codec ID/Info : UTF-8 Plain Text Duration : 1 h 18 min Bit rate : 54 b/s Frame rate : 0.162 FPS Count of elements : 767 Stream size : 31.8 KiB (0%) Title : Full Language : Russian Default : No Forced : No Text #2 ID : 6 Format : UTF-8 Codec ID : S_TEXT/UTF8 Codec ID/Info : UTF-8 Plain Text Duration : 1 h 18 min Bit rate : 26 b/s Frame rate : 0.104 FPS Count of elements : 494 Stream size : 15.2 KiB (0%) Title : Full Language : English Default : No Forced : No Menu 00:00:00.000 : en:Chapter 01 00:08:02.899 : en:Chapter 02 00:14:34.665 : en:Chapter 03 00:21:46.263 : en:Chapter 04 00:31:51.534 : en:Chapter 05 00:37:38.923 : en:Chapter 06 00:43:13.173 : en:Chapter 07 00:48:48.842 : en:Chapter 08 00:56:04.736 : en:Chapter 09 01:03:37.939 : en:Chapter 10 01:13:59.977 : en:Chapter 11 01:20:33.119 : en:Chapter 12
Релиз: Присоединяйся к: Кликай на баннеры.

Всего файлов в раздаче: 1 
In.the.Fire.2023.DUB.BDRip.720p.x264.seleZen.mkv3.28 GB

Похожие раздачи по запросу - пришествий
2024-02-04 magnet 13 пришествий дьявола / In the Fire (2023) BDRip от toxics | D 743.47 MB ↑ 0 ↓ 0
2024-02-03 magnet 13 пришествий дьявола / In the Fire (2023) BDRemux 1080p от селезень | D 20.83 GB ↑ 0 ↓ 0
2024-02-03 magnet 13 пришествий дьявола / In the Fire (2023) BDRip от MegaPeer | D 1.46 GB ↑ 0 ↓ 0
2024-02-03 magnet 13 пришествий дьявола / In the Fire (2023) BDRip 1080p от селезень | D 7.55 GB ↑ 0 ↓ 0
2023-12-14 magnet 13 пришествий дьявола / In the Fire (2023) WEB-DLRip-AVC от DoMiNo & селезень | D | Локализованная версия 1.09 GB ↑ 0 ↓ 0
2023-12-14 magnet 13 пришествий дьявола / In the Fire (2023) WEB-DL 1080p от селезень | D | Локализованная версия 3.42 GB ↑ 0 ↓ 0

Комментарии


Зарегистрируйтесь чтобы добавить комментарий
Торрент клиент
byTorrent - программа для загрузки торрент-файлов.

Скачать byTorrent.exe (1,5 МБ)

Скачать byTorrent.zip (0,6 МБ)

Поддержи torrent.by
российских рублей
(300 российских рублей это 4$)

Обратная связь rss

End game ©