↑↓torrent.by
Поиск
Логин:  Регистрация
Пароль:

13 пришествий дьявола / In the Fire (2023) BDRemux 1080p от селезень | D

download Скачать торрент-файл   magnet Магнитная ссылка Размер: 20.83 GB Добавлен: 2024-02-03 05:00
Пиры будут получены из сети DHT
Последний сидер был замечен 2024-02-08 07:26
Информация о фильме Название: 13 пришествий дьявола Оригинальное название: In the Fire Год выхода: 2023 Жанр: триллер Режиссер: Конор Эллин В ролях: Эмбер Хёрд, Эдуардо Норьега, Лоренцо Макговерн Дзаини, Софи Кэннелл, Лука Кальвани, Яри Гульуччи, Хорхе Мельгар, Эрнесто Молина Самперио О фильме: Молодая врач Грейс Бёрнэм направляется из Нью-Йорка в маленький городок по приглашению матери мальчика, которого местные жители и пастырь подозревают в одержимости дьяволом. Грейс начинает лечить ребенка, пытаясь доказать, что обвинения против него беспочвенны. Однако вскоре с ужасом осознаёт, что ребёнок не так прост. Страна: Италия, США Студия: Angel Oak Films, Iervolino & Lady Bacardi Entertainment, Margate House Films Продолжительность: 01:27:16 Перевод: Дублированный | Мосфильм-Мастер Качество: BDRemux 1080p Видео: MPEG-4 AVC, 1920x1080, 31.5 Mbit/s, 23.976 fps Аудио #01: 48 kHz, AC3, 5.1, 384 Kbps | Дублированный | Мосфильм-Мастер | RUS | Аудио #02: 48 kHz, E-AC3, 5.1, 384 Kbps | Дублированный | Мосфильм-Мастер | RUS | Аудио #03: 48 kHz, DTS-HD MA, 5.1, 1931 Kbps | ENG | Субтитры: Русские (Full), английские
[+] MIGeneral Unique ID : 17118080272111859866478234155553962866 (0xCE0D284C921630C666A25BBD368BB72) Complete name : H:VideoHIn.the.Fire.2023.BDREMUX.1080p.seleZen.mkv Format : Matroska Format version : Version 4 File size : 20.8 GiB Duration : 1 h 27 min Overall bit rate mode : Variable Overall bit rate : 34.2 Mb/s Frame rate : 23.976 FPS Movie name : In the Fire 2023 from seleZen Encoded date : 2024-02-02 11:04:43 UTC Writing application : mkvmerge v80.0 ('Roundabout') 64-bit Writing library : libebml v1.4.4 + libmatroska v1.7.1 Video ID : 1 ID in the original source m : 4113 (0x1011) Format : AVC Format/Info : Advanced Video Codec Format profile : High@L4.1 Format settings : CABAC / 3 Ref Frames Format settings, CABAC : Yes Format settings, Reference : 3 frames Codec ID : V_MPEG4/ISO/AVC Duration : 1 h 27 min Bit rate mode : Variable Bit rate : 31.5 Mb/s Maximum bit rate : 35.0 Mb/s Width : 1 920 pixels Height : 1 080 pixels Display aspect ratio : 16:9 Frame rate mode : Constant Frame rate : 23.976 (24000/1001) FPS Color space : YUV Chroma subsampling : 4:2:0 Bit depth : 8 bits Scan type : Progressive Bits/(Pixel*Frame) : 0.633 Stream size : 19.2 GiB (92%) Language : English Default : Yes Forced : No Original source medium : Blu-ray Audio #1 ID : 2 Format : AC-3 Format/Info : Audio Coding 3 Commercial name : Dolby Digital Codec ID : A_AC3 Duration : 1 h 27 min Bit rate mode : Constant Bit rate : 384 kb/s Channel(s) : 6 channels Channel layout : L R C LFE Ls Rs Sampling rate : 48.0 kHz Frame rate : 31.250 FPS (1536 SPF) Compression mode : Lossy Stream size : 240 MiB (1%) Title : Dub Language : Russian Service kind : Complete Main Default : Yes Forced : No Audio #2 ID : 3 Format : E-AC-3 Format/Info : Enhanced AC-3 Commercial name : Dolby Digital Plus Codec ID : A_EAC3 Duration : 1 h 27 min Bit rate mode : Constant Bit rate : 384 kb/s Channel(s) : 6 channels Channel layout : L R C LFE Ls Rs Sampling rate : 48.0 kHz Frame rate : 31.250 FPS (1536 SPF) Compression mode : Lossy Stream size : 240 MiB (1%) Title : Dub Language : Russian Service kind : Complete Main Default : No Forced : No Audio #3 ID : 4 ID in the original source m : 4353 (0x1101) Format : DTS XLL Format/Info : Digital Theater Systems Commercial name : DTS-HD Master Audio Codec ID : A_DTS Duration : 1 h 27 min Bit rate mode : Variable Bit rate : 1 931 kb/s Channel(s) : 6 channels Channel layout : C L R Ls Rs LFE Sampling rate : 48.0 kHz Frame rate : 93.750 FPS (512 SPF) Bit depth : 16 bits Compression mode : Lossless Stream size : 1.18 GiB (6%) Title : Original Language : English Default : No Forced : No Original source medium : Blu-ray Text #1 ID : 5 Format : UTF-8 Codec ID : S_TEXT/UTF8 Codec ID/Info : UTF-8 Plain Text Duration : 1 h 18 min Bit rate : 54 b/s Frame rate : 0.162 FPS Count of elements : 767 Stream size : 31.8 KiB (0%) Title : Full Language : Russian Default : No Forced : No Text #2 ID : 6 Format : UTF-8 Codec ID : S_TEXT/UTF8 Codec ID/Info : UTF-8 Plain Text Duration : 1 h 18 min Bit rate : 26 b/s Frame rate : 0.104 FPS Count of elements : 494 Stream size : 15.2 KiB (0%) Title : Full Language : English Default : No Forced : No Menu 00:00:00.000 : en:Chapter 01 00:08:02.899 : en:Chapter 02 00:14:34.665 : en:Chapter 03 00:21:46.263 : en:Chapter 04 00:31:51.534 : en:Chapter 05 00:37:38.923 : en:Chapter 06 00:43:13.173 : en:Chapter 07 00:48:48.842 : en:Chapter 08 00:56:04.736 : en:Chapter 09 01:03:37.939 : en:Chapter 10 01:13:59.977 : en:Chapter 11 01:20:33.119 : en:Chapter 12
Релиз: Присоединяйся к: Кликай на баннеры.

Всего файлов в раздаче: 1 
In.the.Fire.2023.BDREMUX.1080p.seleZen.mkv20.83 GB

Похожие раздачи по запросу - пришествий
2024-02-04 magnet 13 пришествий дьявола / In the Fire (2023) BDRip от toxics | D 743.47 MB ↑ 0 ↓ 0
2024-02-03 magnet 13 пришествий дьявола / In the Fire (2023) BDRip от MegaPeer | D 1.46 GB ↑ 0 ↓ 0
2024-02-03 magnet 13 пришествий дьявола / In the Fire (2023) BDRip 1080p от селезень | D 7.55 GB ↑ 0 ↓ 0
2024-02-03 magnet 13 пришествий дьявола / In the Fire (2023) BDRip 720p от DoMiNo & селезень | D 3.28 GB ↑ 0 ↓ 0
2023-12-14 magnet 13 пришествий дьявола / In the Fire (2023) WEB-DLRip-AVC от DoMiNo & селезень | D | Локализованная версия 1.09 GB ↑ 0 ↓ 0
2023-12-14 magnet 13 пришествий дьявола / In the Fire (2023) WEB-DL 1080p от селезень | D | Локализованная версия 3.42 GB ↑ 0 ↓ 0

Комментарии


Зарегистрируйтесь чтобы добавить комментарий
Торрент клиент
byTorrent - программа для загрузки торрент-файлов.

Скачать byTorrent.exe (1,5 МБ)

Скачать byTorrent.zip (0,6 МБ)

Поддержи torrent.by
российских рублей
(300 российских рублей это 4$)

Обратная связь rss

End game ©