↑↓torrent.by
Поиск
Логин:  Регистрация
Пароль:

13 пришествий дьявола / In the Fire (2023) BDRip 1080p от селезень | D

download Скачать торрент-файл   magnet Магнитная ссылка Размер: 7.55 GB Добавлен: 2024-02-03 05:00
Пиры будут получены из сети DHT
Последний сидер был замечен 2024-03-03 17:59
Информация о фильме Название: 13 пришествий дьявола Оригинальное название: In the Fire Год выхода: 2023 Жанр: триллер Режиссер: Конор Эллин В ролях: Эмбер Хёрд, Эдуардо Норьега, Лоренцо Макговерн Дзаини, Софи Кэннелл, Лука Кальвани, Яри Гульуччи, Хорхе Мельгар, Эрнесто Молина Самперио О фильме: Молодая врач Грейс Бёрнэм направляется из Нью-Йорка в маленький городок по приглашению матери мальчика, которого местные жители и пастырь подозревают в одержимости дьяволом. Грейс начинает лечить ребенка, пытаясь доказать, что обвинения против него беспочвенны. Однако вскоре с ужасом осознаёт, что ребёнок не так прост. Страна: Италия, США Студия: Angel Oak Films, Iervolino & Lady Bacardi Entertainment, Margate House Films Продолжительность: 01:27:16 Перевод: Дублированный | Мосфильм-Мастер Качество: BDRip 1080p Видео: MPEG-4 AVC, 1920x804, 11.0 Mbit/s, 23.976 fps Аудио #01: 48 kHz, AC3, 5.1, 384 Kbps | Дублированный | Мосфильм-Мастер | RUS | Аудио #02: 48 kHz, E-AC3, 5.1, 384 Kbps | Дублированный | Мосфильм-Мастер | RUS | Аудио #03: 48 kHz, AC3, 5.1, 640 Kbps | ENG | Субтитры: Русские (Full), английские
[+] MIGeneral Unique ID : 312152896014052188145320227492672491173 (0xEAD67601DF413D689476072FED32CEA5) Complete name : H:VideoHIn.the.Fire.2023.BDRip.1080p.seleZen.mkv Format : Matroska Format version : Version 4 File size : 7.55 GiB Duration : 1 h 27 min Overall bit rate : 12.4 Mb/s Frame rate : 23.976 FPS Movie name : In the Fire 2023 from seleZen Encoded date : 2024-02-02 12:09:53 UTC Writing application : mkvmerge v80.0 ('Roundabout') 64-bit Writing library : libebml v1.4.4 + libmatroska v1.7.1 Video ID : 1 Format : AVC Format/Info : Advanced Video Codec Format profile : High@L4.1 Format settings : CABAC / 5 Ref Frames Format settings, CABAC : Yes Format settings, Reference : 5 frames Codec ID : V_MPEG4/ISO/AVC Duration : 1 h 27 min Bit rate : 11.0 Mb/s Width : 1 920 pixels Height : 804 pixels Display aspect ratio : 2.40:1 Frame rate mode : Constant Frame rate : 23.976 (24000/1001) FPS Color space : YUV Chroma subsampling : 4:2:0 Bit depth : 8 bits Scan type : Progressive Bits/(Pixel*Frame) : 0.297 Stream size : 6.69 GiB (89%) Writing library : x264 core 164 r3164 seleZen Encoding settings : cabac=1 / ref=5 / deblock=1:-2:-2 / analyse=0x3:0x133 / me=umh / subme=11 / psy=1 / psy_rd=1.04:0.01 / mixed_ref=1 / me_range=48 / chroma_me=1 / trellis=2 / 8x8dct=1 / cqm=0 / deadzone=21,11 / fast_pskip=0 / chroma_qp_offset=-3 / threads=25 / lookahead_threads=6 / sliced_threads=0 / nr=0 / decimate=0 / interlaced=0 / bluray_compat=0 / constrained_intra=0 / bframes=10 / b_pyramid=2 / b_adapt=2 / b_bias=0 / direct=3 / weightb=1 / open_gop=0 / weightp=2 / keyint=240 / keyint_min=23 / scenecut=40 / intra_refresh=0 / rc_lookahead=60 / rc=2pass / mbtree=0 / bitrate=11000 / ratetol=1.0 / qcomp=0.60 / qpmin=0 / qpmax=51 / qpstep=4 / cplxblur=20.0 / qblur=0.5 / vbv_maxrate=50000 / vbv_bufsize=62500 / nal_hrd=none / filler=0 / ip_ratio=1.40 / pb_ratio=1.30 / aq=3:0.80 Language : English Default : Yes Forced : No Audio #1 ID : 2 Format : AC-3 Format/Info : Audio Coding 3 Commercial name : Dolby Digital Codec ID : A_AC3 Duration : 1 h 27 min Bit rate mode : Constant Bit rate : 384 kb/s Channel(s) : 6 channels Channel layout : L R C LFE Ls Rs Sampling rate : 48.0 kHz Frame rate : 31.250 FPS (1536 SPF) Compression mode : Lossy Stream size : 240 MiB (3%) Title : Dub Language : Russian Service kind : Complete Main Default : Yes Forced : No Audio #2 ID : 3 Format : E-AC-3 Format/Info : Enhanced AC-3 Commercial name : Dolby Digital Plus Codec ID : A_EAC3 Duration : 1 h 27 min Bit rate mode : Constant Bit rate : 384 kb/s Channel(s) : 6 channels Channel layout : L R C LFE Ls Rs Sampling rate : 48.0 kHz Frame rate : 31.250 FPS (1536 SPF) Compression mode : Lossy Stream size : 240 MiB (3%) Title : Dub Language : Russian Service kind : Complete Main Default : No Forced : No Audio #3 ID : 4 Format : AC-3 Format/Info : Audio Coding 3 Commercial name : Dolby Digital Codec ID : A_AC3 Duration : 1 h 27 min Bit rate mode : Constant Bit rate : 640 kb/s Channel(s) : 6 channels Channel layout : L R C LFE Ls Rs Sampling rate : 48.0 kHz Frame rate : 31.250 FPS (1536 SPF) Compression mode : Lossy Stream size : 400 MiB (5%) Language : English Service kind : Complete Main Default : No Forced : No Text #1 ID : 5 Format : UTF-8 Codec ID : S_TEXT/UTF8 Codec ID/Info : UTF-8 Plain Text Duration : 1 h 18 min Bit rate : 54 b/s Frame rate : 0.162 FPS Count of elements : 767 Stream size : 31.8 KiB (0%) Title : Full Language : Russian Default : No Forced : No Text #2 ID : 6 Format : UTF-8 Codec ID : S_TEXT/UTF8 Codec ID/Info : UTF-8 Plain Text Duration : 1 h 18 min Bit rate : 26 b/s Frame rate : 0.104 FPS Count of elements : 494 Stream size : 15.2 KiB (0%) Title : Full Language : English Default : No Forced : No Menu 00:00:00.000 : en:Chapter 01 00:08:02.899 : en:Chapter 02 00:14:34.665 : en:Chapter 03 00:21:46.263 : en:Chapter 04 00:31:51.534 : en:Chapter 05 00:37:38.923 : en:Chapter 06 00:43:13.173 : en:Chapter 07 00:48:48.842 : en:Chapter 08 00:56:04.736 : en:Chapter 09 01:03:37.939 : en:Chapter 10 01:13:59.977 : en:Chapter 11 01:20:33.119 : en:Chapter 12
Релиз: Присоединяйся к: Кликай на баннеры.

Всего файлов в раздаче: 1 
In.the.Fire.2023.BDRip.1080p.seleZen.mkv7.55 GB

Похожие раздачи по запросу - пришествий
2024-02-04 magnet 13 пришествий дьявола / In the Fire (2023) BDRip от toxics | D 743.47 MB ↑ 0 ↓ 0
2024-02-03 magnet 13 пришествий дьявола / In the Fire (2023) BDRemux 1080p от селезень | D 20.83 GB ↑ 0 ↓ 0
2024-02-03 magnet 13 пришествий дьявола / In the Fire (2023) BDRip от MegaPeer | D 1.46 GB ↑ 0 ↓ 0
2024-02-03 magnet 13 пришествий дьявола / In the Fire (2023) BDRip 720p от DoMiNo & селезень | D 3.28 GB ↑ 0 ↓ 0
2023-12-14 magnet 13 пришествий дьявола / In the Fire (2023) WEB-DLRip-AVC от DoMiNo & селезень | D | Локализованная версия 1.09 GB ↑ 0 ↓ 0
2023-12-14 magnet 13 пришествий дьявола / In the Fire (2023) WEB-DL 1080p от селезень | D | Локализованная версия 3.42 GB ↑ 0 ↓ 0

Комментарии


Зарегистрируйтесь чтобы добавить комментарий
Торрент клиент
byTorrent - программа для загрузки торрент-файлов.

Скачать byTorrent.exe (1,5 МБ)

Скачать byTorrent.zip (0,6 МБ)

Поддержи torrent.by
российских рублей
(300 российских рублей это 4$)

Обратная связь rss

End game ©