↑↓torrent.by
Поиск
Логин:  Регистрация
Пароль:

Голос [S12x01-03 из 14] (2024) HDTVRip от Files-x

download Скачать торрент-файл   magnet Магнитная ссылка Размер: 3.21 GB Добавлен: 2024-02-03 11:00
Пиры будут получены из сети DHT
Последний сидер был замечен 2024-02-26 12:54
Информация о фильме Оригинальное название: Голос Год выхода: 2024 Жанр: ТВ-шоу, музыка Ведущие: Яна Чурикова Наставники: Наставники: Антона Беляева, Владимира Преснякова, Полину Гагарину и дебютирующую в шоу в роли наставника певицу Zivert О фильме: 19 января 2024 года, в эфире Первого канала стартует премьера 12 сезона суперпроекта "Голос". Формат шоу не изменился, но организаторы внесли несколько изменений. Как и всегда, первая часть проекта будет посвящена слепым прослушиваниям: из 128 участников, прошедших отбор, четверо судей должны будут выбрать себе по 12 человек в команду. Изменения произошли в составе членов жюри. В креслах наставников "Голоса" зрители увидят Антона Беляева, Владимира Преснякова, Полину Гагарину и дебютирующую в шоу в роли судьи певицу Zivert. Ведущей проекта снова станет Яна Чурикова. У судей нового сезона шоу снова будет возможность "блокировки" друг друга — таким образом наставники смогут конкурировать друг с другом в борьбе за понравившихся участников. Среди прошедших предварительный отбор участников оказались не только Россияне, но и граждане Беларуси, Грузии, Эстонии, Кубы, Таджикистана. Еще одно нововведение — в этом году победитель "Голоса", помимо внушительного денежного приза, получит возможность записать и выпустить свою музыкальную композицию при поддержке партнера конкурса, лейбла VK Records. Страна: Россия Студия: Первый канал, Красный квадрат Продолжительность: 3 x ~ 01:21:36 Перевод: Не требуется Файл Кодек: XviD Качество: HDTVRip Видео: XviD, ~ 1600 Кбит/с, 720x400, 25 кадр/с Звук: AC3, 2 ch, 192 Кбит/с
[+] Скриншоты
[+] Интересно Формат проекта остается неизменным уже почти 12 лет — с момента появления шоу на российских экранах. "Голос" состоит из нескольких этапов, в каждом из них участники команд постепенно выбывают: "Слепые прослушивания", "Поединки", "Нокауты", "Четвертьфинал", "Полуфинал" и разумеется, "Финал". Победителя шоу выбирают не только наставники, но и сами зрители — телезрители определяют победителя во время голосования, также уже несколько сезонов зрители голосуют и за лучшего наставника шоу "Голос". О главной цели шоу рассказал Юрий Аксюта, главный продюсер музыкальных и развлекательных программ Первого канала: "Миссия „Голоса“ — показать наибольшему числу зрителей талантливых людей. Необязательно молодых. У некоторых жизнь так сложилась, что не случилось в ней трамплина, с которого они могли бы стартовать в большую эстраду. Мы этот трамплин даем". Многие участники "Голоса" прославились после шоу и завоевали любовь слушателей: Ян Гэ, Наргиз Закирова, Олег Майями, Мария Зайцева. Для Александра Панайотова участие в проекте стало перезагрузкой карьеры, а Антон Беляев, конкурсант одного из первых сезонов — сейчас и вовсе стал наставником шоу.
[+] MediaInfo General Complete name : C:01.Голос.s12.E01.(2024).HDTVRip.by.Nicodem.Files-x.avi Format : AVI Format/Info : Audio Video Interleave File size : 1.03 GiB Duration : 1h 21mn Overall bit rate : 1 802 Kbps Writing application : VirtualDubMod 1.5.10.3 | www.virtualdub-fr.org || (build 2550/release) Writing library : VirtualDubMod build 2550/release Video ID : 0 Format : MPEG-4 Visual Format profile : Advanced Simple@L5 Format settings, BVOP : 1 Format settings, QPel : No Format settings, GMC : No warppoints Format settings, Matrix : Custom Codec ID : XVID Codec ID/Hint : XviD Duration : 1h 21mn Bit rate : 1 600 Kbps Width : 720 pixels Height : 400 pixels Display aspect ratio : 16:9 Frame rate : 25.000 fps Color space : YUV Chroma subsampling : 4:2:0 Bit depth : 8 bits Scan type : Progressive Compression mode : Lossy Bits/(Pixel*Frame) : 0.222 Stream size : 934 MiB (89%) Writing library : XviD 73 Audio ID : 1 Format : AC-3 Format/Info : Audio Coding 3 Mode extension : CM (complete main) Codec ID : 2000 Duration : 1h 21mn Bit rate mode : Constant Bit rate : 192 Kbps Channel(s) : 2 channels Channel positions : Front: L R Sampling rate : 48.0 KHz Bit depth : 16 bits Compression mode : Lossy Stream size : 112 MiB (11%) Alignment : Split accross interleaves Interleave, duration : 40 ms (1.00 video frame) Interleave, preload duration : 500 ms
Релиз от:

Всего файлов в раздаче: 3 
01.Голос.s12.E01.(2024).HDTVRip.by.Nicodem.Files-x.avi1.03 GB
02.Голос.s12.E02.(2024).HDTVRip.by.Nicodem.Files-x.avi1.09 GB
03.Голос.s12.E03.(2024).HDTVRip.by.Nicodem.Files-x.avi1.09 GB

Похожие раздачи по запросу - Голос
2024-02-05 magnet Идеальный голос 2 / Pitch Perfect 2 (2015) UHD BDRemux 2160p от селезень | 4K | HDR | D 53.05 GB ↑ 0 ↓ 0
2024-01-27 magnet Голос [S12x01-02 из 14] (2024) HDTVRip от Files-x 2.11 GB ↑ 0 ↓ 0
2024-01-20 magnet Голос [S12x01 из 14] (2024) HDTVRip от Files-x 1.03 GB ↑ 0 ↓ 0
2024-01-10 magnet Голос монстра / A Monster Calls (2016) BDRip 1080p от Generalfilm | D 10.31 GB ↑ 0 ↓ 0
2023-12-29 magnet Илья Шумей - Темные пастыри 01. Голос металла (2023) МР3 325.05 MB ↑ 0 ↓ 0

Комментарии


Зарегистрируйтесь чтобы добавить комментарий
Торрент клиент
byTorrent - программа для загрузки торрент-файлов.

Скачать byTorrent.exe (1,5 МБ)

Скачать byTorrent.zip (0,6 МБ)

Поддержи torrent.by
российских рублей
(300 российских рублей это 4$)

Обратная связь rss

End game ©