↑↓torrent.by
Поиск
Логин:  Регистрация
Пароль:

Колдуй отсюда [S01] (2022) WEBRip 1080p

download Скачать торрент-файл   magnet Магнитная ссылка Размер: 7.22 GB Добавлен: 2024-02-03 17:00
Пиры будут получены из сети DHT
Последний сидер был замечен 2024-02-04 15:47
Оригинальное название: Колдуй отсюда Год выпуска: 2022 Жанр: Мультфильм, фэнтези, комедия, приключения Выпущено: Россия, Студия анимации 2x2 Режиссер: Евгений Огнев, Максим Конышев В ролях: Маргарита Корш, Михаил Хрусталёв, Глеб Петров, Лина Иванова, Геннадий Новиков, Ева Финкельштейн, Михаил Глушковский О фильме: Анимационный сериал о юной волшебнице, которая внезапно врывается в обычную жизнь своего брата и приносит с собой ураган магических проблем. Взбалмошная колдунья Мерлин с размахом прибывает в дом брата Артура, которого не видела много лет, а вместе с ней появляются волшебная башня, призрак в доспехах и толстый кот. Это очень настораживает Артура, но Мерлин необходимо наладить с ним контакт и разобраться со старыми обидами, ведь только семья поможет победить разрушительную силу, идущую за ней по пятам из магического мира. Продолжительность: 12 х ~ 00:22:00 Перевод: Не требуется Качество: WEBRip 1080p (Premier) Формат: MKV Видео: AVC, 1920x1072, 25 fps, ~ 3971 kbps Аудио: AAC, 44.1 KHz, 2 ch, 192 kbps Субтитры: отсутствуют
[+] Подробные технические данныеGeneral Unique ID : 2819444207170725927697232359360965128 (0x21F0154F3AA91087B71AF7F21DA2A08) Complete name : E:Kolduj.Otsyuda.S01.1080p.WEB-DLkolduj-otsyuda_S01E01.mkv Format : Matroska Format version : Version 4 File size : 655 MiB Duration : 22 min 0 s Overall bit rate mode : Variable Overall bit rate : 4 165 kb/s Encoded date : UTC 2024-02-03 04:41:19 Writing application : mkvmerge v62.0.0 ('Apollo') 64-bit Writing library : libebml v1.4.2 + libmatroska v1.6.4 Video ID : 1 Format : AVC Format/Info : Advanced Video Codec Format profile : High@L4.1 Format settings : CABAC / 2 Ref Frames Format settings, CABAC : Yes Format settings, Reference frames : 2 frames Codec ID : V_MPEG4/ISO/AVC Duration : 21 min 59 s Bit rate mode : Variable Bit rate : 3 971 kb/s Maximum bit rate : 4 500 kb/s Width : 1 920 pixels Height : 1 072 pixels Display aspect ratio : 16:9 Frame rate mode : Constant Frame rate : 25.000 FPS Color space : YUV Chroma subsampling : 4:2:0 Bit depth : 8 bits Scan type : Progressive Bits/(Pixel*Frame) : 0.077 Stream size : 625 MiB (95%) Default : Yes Forced : No Color range : Limited Color primaries : BT.709 Transfer characteristics : BT.709 Matrix coefficients : BT.709 Audio ID : 2 Format : AAC LC Format/Info : Advanced Audio Codec Low Complexity Codec ID : A_AAC-2 Duration : 22 min 0 s Bit rate : 192 kb/s Channel(s) : 2 channels Channel layout : L R Sampling rate : 44.1 kHz Frame rate : 43.066 FPS (1024 SPF) Compression mode : Lossy Delay relative to video : -120 ms Stream size : 30.2 MiB (5%) Default : Yes Forced : No
[+] Скриншоты
Не уходите сразу же после скачивания , раздача до нескольких скачавших , дальше все зависит от вас жизнь раздачи

Всего файлов в раздаче: 12 
kolduj-otsyuda_S01E01.mkv655.45 MB
kolduj-otsyuda_S01E02.mkv604.57 MB
kolduj-otsyuda_S01E03.mkv587.93 MB
kolduj-otsyuda_S01E04.mkv643.71 MB
kolduj-otsyuda_S01E05.mkv642.65 MB
kolduj-otsyuda_S01E06.mkv600.22 MB
kolduj-otsyuda_S01E07.mkv624.16 MB
kolduj-otsyuda_S01E08.mkv646.06 MB
kolduj-otsyuda_S01E09.mkv590.28 MB
kolduj-otsyuda_S01E10.mkv612.52 MB
Показать все файлы

Комментарии


Зарегистрируйтесь чтобы добавить комментарий
Торрент клиент
byTorrent - программа для загрузки торрент-файлов.

Скачать byTorrent.exe (1,5 МБ)

Скачать byTorrent.zip (0,6 МБ)

Поддержи torrent.by
российских рублей
(300 российских рублей это 4$)

Обратная связь rss

End game ©