↑↓torrent.by
Поиск
Логин:  Регистрация
Пароль:

Опасные связи. Друзья и враги в дикой природе / Mad Match – Nature’s strangest Relationshi (2019) HDTV 1080i | P1

download Скачать торрент-файл   magnet Магнитная ссылка Размер: 3.08 GB Добавлен: 2024-02-03 17:00
Пиры будут получены из сети DHT
Последний сидер был замечен 2024-02-04 10:46
Информация о фильме Название: Опасные связи. Друзья и враги в дикой природе Оригинальное название: Mad Match – Nature’s strangest Relationshi Год выхода: 2019 Жанр: Документальный, природа, флора, фауна Режиссер: Петра Ледерхейгер О фильме: Что делает маленькая лягушка в норе тарантула? Почему гусеница находится посреди муравьиного гнезда? Как разные биологические виды взаимодействуют друг с другом? Могут ли они объединяться в разных ситуациях или, может, симбиоз - часть их жизни? Страна: Австрия Студия: Terra Mater Factutal Studios Продолжительность: 00:49:44 Перевод: Профессиональный (одноголосый закадровый) 1ТВЧ / СВ-Дубль Файл Кодек: AVC/H.264 Качество: HDTV 1080i Видео: 1920x1080 (16:9), 25 fps, AVC (H.264), Main@L4, 8291 kbps, 0.160 bit/pixel Звук: Русский 48 kHz, MPEG Layer 2, 2 ch, 192 kbps 1ТВЧ Русский 48 kHz, MPEG Layer 2, 2 ch, 192 kbps СВ-Дубль Субтитры: Русские, отключаемые Семпл
[+] MediaInfoComplete name : F:НаладкиАльянсы в природе_.mkv Format : Matroska Format version : Version 4 File size : 3.08 GiB Duration : 49 min 44 s Overall bit rate : 8 851 kb/s Encoded date : UTC 2023-04-16 04:06:32 Writing application : mkvmerge v6.6.0 ('The Edge Of The In Between') built on Dec 1 2013 17:55:00 Writing library : libebml v1.3.0 + libmatroska v1.4.1 Video ID : 1 Format : AVC Format/Info : Advanced Video Codec Format profile : Main@L4 Format settings : CABAC / 3 Ref Frames Format settings, CABAC : Yes Format settings, Reference : 3 frames Codec ID : V_MPEG4/ISO/AVC Duration : 49 min 44 s Bit rate : 8 291 kb/s Width : 1 920 pixels Height : 1 080 pixels Display aspect ratio : 16:9 Frame rate mode : Constant Frame rate : 25.000 FPS Color space : YUV Chroma subsampling : 4:2:0 Bit depth : 8 bits Scan type : Interlaced Scan type, store method : Separated fields Scan order : Top Field First Bits/(Pixel*Frame) : 0.160 Stream size : 2.88 GiB (94%) Default : Yes Forced : No Color range : Limited Color primaries : BT.709 Transfer characteristics : BT.709 Matrix coefficients : BT.709 Audio #1 ID : 2 Format : MPEG Audio Format version : Version 1 Format profile : Layer 2 Codec ID : A_MPEG/L2 Codec ID/Hint : MP2 Duration : 49 min 44 s Bit rate mode : Constant Bit rate : 192 kb/s Channel(s) : 2 channels Sampling rate : 48.0 kHz Compression mode : Lossy Stream size : 68.3 MiB (2%) Title : 1ТВЧ Language : Russian Default : Yes Forced : No Audio #2 ID : 3 Format : MPEG Audio Format version : Version 1 Format profile : Layer 2 Codec ID : A_MPEG/L2 Codec ID/Hint : MP2 Duration : 49 min 44 s Bit rate mode : Constant Bit rate : 192 kb/s Channel(s) : 2 channels Sampling rate : 48.0 kHz Compression mode : Lossy Stream size : 68.3 MiB (2%) Title : СВ-Дубль Language : Russian Default : No Forced : No Text ID : 4 Format : UTF-8 Codec ID : S_TEXT/UTF8 Codec ID/Info : UTF-8 Plain Text Title : СВ-Дубль Language : Russian Default : No Forced : No
[+] Скриншоты
Релиз от: kyba

Всего файлов в раздаче: 1 
Альянсы в природе_.mkv3.08 GB

Комментарии


Зарегистрируйтесь чтобы добавить комментарий
Торрент клиент
byTorrent - программа для загрузки торрент-файлов.

Скачать byTorrent.exe (1,5 МБ)

Скачать byTorrent.zip (0,6 МБ)

Поддержи torrent.by
российских рублей
(300 российских рублей это 4$)

Обратная связь rss

End game ©