↑↓torrent.by
Поиск
Логин:  Регистрация
Пароль:

Оружие / The Weapon (2023) WEB-DL 720p от ELEKTRI4KA | D | Локализованная версия

download Скачать торрент-файл   magnet Магнитная ссылка Размер: 2.31 GB Добавлен: 2024-02-03 17:00
Пиры будут получены из сети DHT
Последний сидер был замечен вчера в 22:26
«Одинокий мститель бросает вызов преступному миру Лос-Анджелеса. Криминальный экшн для любителей крепких боевиков» Информация о фильме Название: Оружие Оригинальное название: The Weapon Год выхода: 2023 Жанр: боевик, триллер Режиссер: Тони Шина В ролях: Тони Шина, Дональд Серроне, Джеймс Чалк, Брюс Дерн, Шон Патрик Флэнери, Кьюба Гудинг мл., Марк Джастис, Джек Кеси, АннаЛинн МакКорд, Олег Прудиус О фильме: У криминального мира Лос-Анджелеса новая проблема по имени Даллас Ультио. Этот суровый мужчина в одиночку расправляется с целыми бандами. Он разносит байкерскую группировку, уничтожает лаборатории по производству метамфетамина и вступает в рукопашный бой с самыми опасными преступниками. Мафиозные авторитеты пытаются понять, на кого работает этот убийца-одиночка, но все дело в возлюбленной Далласа. Ее похитил и держит в заложниках один из мафиозных боссов. Герой не остановится, пока не восторжествует справедливость. Выпущено: США / Grindstone Entertainment Group, Lionsgate Продолжительность: 01:23:43 Озвучивание: Дублированное | Официальное Файл Формат: MKV Качество: WEB-DL 720p | Локализованная версия Видео: MPEG-4 AVC, 3200 Kb/s, 1280x720 Аудио: Russian: AC3, 384 Kb/s (6 ch) / E-AC3, 384 Kb/s (6 ch) Субтитры: English Дополнительно: Нет Релиз группы: &  | Мы в Telegram:
[+] Инфо-файл:Complete name : Oruzhie.2023.WEB-DL.720p.ELEKTRI4KA.UNIONGANG.mkv Format : Matroska Format version : Version 4 File size : 2.31 GiB Duration : 1 h 23 min Overall bit rate : 3 951 kb/s Movie name : Oruzhie.2023.WEB-DL.720p.ELEKTRI4KA.UNIONGANG. Encoded date : UTC 2024-02-03 09:49:41 Writing application : mkvmerge v68.0.0 ('The Curtain') 64-bit Writing library : libebml v1.4.2 + libmatroska v1.6.4 Video ID : 1 Format : AVC Format/Info : Advanced Video Codec Format profile : High@L3.1 Format settings : CABAC / 3 Ref Frames Format settings, CABAC : Yes Format settings, RefFrames : 3 frames Codec ID : V_MPEG4/ISO/AVC Duration : 1 h 23 min Bit rate : 3 200 kb/s Width : 1 280 pixels Height : 720 pixels Display aspect ratio : 16:9 Frame rate mode : Constant Frame rate : 23.976 (23976/1000) FPS Color space : YUV Chroma subsampling : 4:2:0 Bit depth : 8 bits Scan type : Progressive Bits/(Pixel*Frame) : 0.145 Stream size : 1.86 GiB (81%) Writing library : x264 core 164 r3095 baee400 Encoding settings : cabac=1 / ref=4 / deblock=1:-1:-1 / analyse=0x3:0x133 / me=umh / subme=9 / psy=1 / psy_rd=0.40:1.00 / mixed_ref=1 / me_range=24 / chroma_me=1 / trellis=0 / 8x8dct=1 / cqm=0 / deadzone=21, 11 / fast_pskip=1 / chroma_qp_offset=-2 / threads=3 / lookahead_threads=1 / sliced_threads=0 / nr=0 / decimate=1 / interlaced=0 / bluray_compat=0 / stitchable=1 / constrained_intra=0 / bframes=8 / b_pyramid=1 / b_adapt=0 / b_bias=0 / direct=3 / weightb=1 / open_gop=0 / weightp=2 / keyint=71 / keyint_min=36 / scenecut=0 / intra_refresh=0 / rc_lookahead=40 / rc=2pass / mbtree=1 / bitrate=3200 / ratetol=1.0 / qcomp=0.80 / qpmin=1 / qpmax=69 / qpstep=4 / cplxblur=20.0 / qblur=0.5 / vbv_maxrate=4800 / vbv_bufsize=6400 / nal_hrd=none / filler=0 / ip_ratio=1.40 / aq=1:1.00 Default : Yes Forced : No Color range : Limited Color primaries : BT.709 Transfer characteristics : BT.709 Matrix coefficients : BT.709 Audio #1 ID : 2 Format : AC-3 Format/Info : Audio Coding 3 Commercial name : Dolby Digital Codec ID : A_AC3 Duration : 1 h 23 min Bit rate mode : Constant Bit rate : 384 kb/s Channel(s) : 6 channels Channel layout : L R C LFE Ls Rs Sampling rate : 48.0 kHz Frame rate : 31.250 FPS (1536 SPF) Bit depth : 16 bits Compression mode : Lossy Stream size : 230 MiB (10%) Title : DUB AC3 Language : Russian Service kind : Complete Main Default : Yes Forced : No Audio #2 ID : 3 Format : E-AC-3 Format/Info : Enhanced AC-3 Commercial name : Dolby Digital Plus Codec ID : A_EAC3 Duration : 1 h 23 min Bit rate mode : Constant Bit rate : 384 kb/s Channel(s) : 6 channels Channel layout : L R C LFE Ls Rs Sampling rate : 48.0 kHz Frame rate : 31.250 FPS (1536 SPF) Compression mode : Lossy Stream size : 230 MiB (10%) Title : DUB EAC3 Language : Russian Service kind : Complete Main Default : No Forced : No Text #1 ID : 4 Format : UTF-8 Codec ID : S_TEXT/UTF8 Codec ID/Info : UTF-8 Plain Text Duration : 387 ms Bit rate : 20 b/s Count of elements : 1 Stream size : 1.00 Byte (0%) Language : English Default : No Forced : No Text #2 ID : 5 Format : UTF-8 Codec ID : S_TEXT/UTF8 Codec ID/Info : UTF-8 Plain Text Duration : 1 h 18 min Bit rate : 51 b/s Count of elements : 989 Stream size : 29.7 KiB (0%) Language : English Default : No Forced : No
[+] Скриншоты

Всего файлов в раздаче: 1 
Oruzhie.2023.WEB-DL.720p.ELEKTRI4KA.UNIONGANG.mkv2.31 GB

Похожие раздачи по запросу - Оружие
2024-02-04 magnet Оружие / The Weapon (2023) WEB-DLRip от toxics | D | Локализованная версия 743.58 MB ↑ 0 ↓ 0
2024-02-03 magnet Оружие / The Weapon (2023) WEB-DLRip от ELEKTRI4KA | D | Локализованная версия 1.37 GB ↑ 0 ↓ 0
2024-01-26 magnet Серия - «Оружие» [43 книги] (2005-2022) FB2, PDF, DjVu 305.86 MB ↑ 0 ↓ 0
2024-01-16 magnet Михаил Козырев, Вячеслав Козырев - Специальное оружие Второй мировой войны (2009) PDF 24.26 MB ↑ 0 ↓ 0
2023-12-31 magnet Оружие холодной войны [02x01-10] (2023) HDTV 1080p от MAGNAT 13.67 GB ↑ 0 ↓ 0
2023-12-03 magnet Военная приёмка. Оружие спецподразделений в специальной военной операции (2023) HDTV 1080p от MAGNAT 1.30 GB ↑ 0 ↓ 0
2023-11-25 magnet Антология - Книжная серия: Абсолютное оружие [613 книг] (1996-2023) FB2 2К900.27 MB ↑ 0 ↓ 0

Комментарии


Зарегистрируйтесь чтобы добавить комментарий
Торрент клиент
byTorrent - программа для загрузки торрент-файлов.

Скачать byTorrent.exe (1,5 МБ)

Скачать byTorrent.zip (0,6 МБ)

Поддержи torrent.by
российских рублей
(300 российских рублей это 4$)

Обратная связь rss

End game ©