↑↓torrent.by
Поиск
Логин:  Регистрация
Пароль:

30 ночей секса во имя спасения брака / 30 Nights / 30 Nights of Sex (2018) WEB-DL 1080p | D

download Скачать торрент-файл   magnet Магнитная ссылка Размер: 3.44 GB Раздают: 0 Качают: 1 Добавлен: 2024-02-03 17:00
Пиры будут получены из сети DHT
Последний сидер был замечен вчера в 18:26
Год выпуска: 2018 Производство: США / Tape Ball Entertainment Жанр: комедия Режиссер: Том Мец III Продюсер: Джонни Джикалон, Аманда Каплан, Том Мец III Актеры: Alyssa Brayboy, Ник Буш, Крис Батлер, Тед Кэннон, Патрик Дэниэл, Рамон Де Окампо, Патрик Фабиан, Дэн Фоглер, Джонни Джикалон, Келли Доун Хэнкок Описание: В последней отчаянной попытке спасти свой брак Ник и Уилла посещают известного, но эксцентричного семейного психотерапевта, который советует им отправиться в путешествие, полное провокационных секс-заданий. Продолжительность: 01:27:43 Перевод: Дублированный (Официальный) Субтитры: Русские Файл Качество: WEB-DL 1080p Формат: MKV Видео: AVC/H.264, 1920x1080, ~5120 Kbps Аудио 1: AAC, 2 ch, 256 Kbps - Русский (DUB) Аудио 2: AAC, 2 ch, 256 Kbps - Английский Релиз от: karfagen1975
[+] M/IGeneral Unique ID : 77118480675760156792285164672790375158 (0x3A047AA79A361D36DCDFA3D587092AF6) Complete name : 30 Nights of Sex (2018) WEB-DL 1080p.mkv Format : Matroska Format version : Version 4 File size : 3.44 GiB Duration : 1 h 27 min Overall bit rate : 5 614 kb/s Frame rate : 25.000 FPS Encoded date : 2024-02-02 19:13:35 UTC Writing application : mkvmerge v75.0.0 ('Goliath') 64-bit Writing library : libebml v1.4.4 + libmatroska v1.7.1 Video ID : 1 Format : AVC Format/Info : Advanced Video Codec Format profile : High@L4 Format settings : CABAC / 4 Ref Frames Format settings, CABAC : Yes Format settings, Reference frames : 4 frames Codec ID : V_MPEG4/ISO/AVC Duration : 1 h 27 min Bit rate : 5 120 kb/s Width : 1 920 pixels Height : 1 080 pixels Display aspect ratio : 16:9 Frame rate mode : Constant Frame rate : 25.000 FPS Color space : YUV Chroma subsampling : 4:2:0 Bit depth : 8 bits Scan type : Progressive Bits/(Pixel*Frame) : 0.099 Stream size : 3.12 GiB (91%) Title : 30 ночей секса во имя спасения брака (2018) WEB-DL 1080p Writing library : x264 core 152 r2854 e9a5903 Encoding settings : cabac=1 / ref=3 / deblock=1:0:0 / analyse=0x3:0x113 / me=hex / subme=7 / psy=1 / psy_rd=1.00:0.00 / mixed_ref=1 / me_range=16 / chroma_me=1 / trellis=1 / 8x8dct=1 / cqm=0 / deadzone=21,11 / fast_pskip=1 / chroma_qp_offset=-2 / threads=34 / lookahead_threads=5 / sliced_threads=0 / nr=0 / decimate=1 / interlaced=0 / bluray_compat=0 / constrained_intra=0 / bframes=6 / b_pyramid=2 / b_adapt=1 / b_bias=0 / direct=1 / weightb=1 / open_gop=0 / weightp=2 / keyint=50 / keyint_min=26 / scenecut=0 / intra_refresh=0 / rc_lookahead=40 / rc=2pass / mbtree=1 / bitrate=5120 / ratetol=1.0 / qcomp=0.60 / qpmin=0 / qpmax=69 / qpstep=4 / cplxblur=20.0 / qblur=0.5 / vbv_maxrate=7680 / vbv_bufsize=20480 / nal_hrd=none / filler=0 / ip_ratio=1.40 / aq=1:1.00 Language : English Default : Yes Forced : No Audio #1 ID : 2 Format : AAC LC Format/Info : Advanced Audio Codec Low Complexity Codec ID : A_AAC-2 Duration : 1 h 27 min Bit rate : 256 kb/s Channel(s) : 2 channels Channel layout : L R Sampling rate : 48.0 kHz Frame rate : 46.875 FPS (1024 SPF) Compression mode : Lossy Stream size : 161 MiB (5%) Title : DUB Language : Russian Default : No Forced : No Audio #2 ID : 3 Format : AAC LC Format/Info : Advanced Audio Codec Low Complexity Codec ID : A_AAC-2 Duration : 1 h 27 min Bit rate : 256 kb/s Channel(s) : 2 channels Channel layout : L R Sampling rate : 48.0 kHz Frame rate : 46.875 FPS (1024 SPF) Compression mode : Lossy Stream size : 161 MiB (5%) Title : Original Language : English Default : No Forced : No Text ID : 4 Format : UTF-8 Codec ID : S_TEXT/UTF8 Codec ID/Info : UTF-8 Plain Text Duration : 1 h 27 min Bit rate : 119 b/s Frame rate : 0.348 FPS Count of elements : 1822 Stream size : 76.1 KiB (0%) Title : Full Language : Russian Default : No Forced : No
[+] Скриншоты

Всего файлов в раздаче: 1 
30 Nights of Sex (2018) WEB-DL 1080p.mkv3.44 GB

Похожие раздачи по запросу - ночей
2024-02-03 magnet 30 ночей секса во имя спасения брака / 30 Nights / 30 Nights of Sex (2018) WEB-DLRip от MegaPeer | D 1.37 GB ↑ 0 ↓ 0
2024-01-30 magnet Одиннадцать дней, одиннадцать ночей / 11 дней, 11 ночей / Eleven Days, Eleven Nights / Undici giorni, undici notti (1987) HDRip | P2 700.98 MB ↑ 0 ↓ 0
2023-12-11 magnet Пять ночей с Фредди / Five Nights at Freddy's (2023) BDRip от MegaPeer | D 1.46 GB ↑ 0 ↓ 0
2023-11-04 magnet Пять ночей с Фредди / Five Nights at Freddy's (2023) WEB-DL-HEVC 2160p | 4K | SDR | D | HDRezka Studio 12.01 GB ↑ 0 ↓ 0
2023-11-03 magnet Пять ночей с Фредди / Five Nights at Freddy's (2023) WEB-DLRip 720p от ExKinoRay | D | HDRezka Studio 2.06 GB ↑ 0 ↓ 0
2023-11-03 magnet Пять ночей с Фредди / Five Nights at Freddy's (2023) WEB-DL 1080p | D | HDRezka Studio 6.37 GB ↑ 0 ↓ 0
2023-10-28 magnet Пять ночей с Фредди / Five Nights at Freddy's (2023) WEB-DLRip-AVC от DoMiNo | D | TS 1.42 GB ↑ 0 ↓ 0

Комментарии


Зарегистрируйтесь чтобы добавить комментарий
Торрент клиент
byTorrent - программа для загрузки торрент-файлов.

Скачать byTorrent.exe (1,5 МБ)

Скачать byTorrent.zip (0,6 МБ)

Поддержи torrent.by
российских рублей
(300 российских рублей это 4$)

Обратная связь rss

End game ©