↑↓torrent.by
Поиск
Логин:  Регистрация
Пароль:

Рваный ветер / Обратный билет [S01] (2019) WEBRip 720p от ExKinoRay

download Скачать торрент-файл   magnet Магнитная ссылка Размер: 12.03 GB Добавлен: 2024-02-04 05:00
Пиры будут получены из сети DHT
Последний сидер был замечен 2024-02-27 20:35
Информация о фильме Название: Рваный ветер / Обратный билет Год выхода: 2019 Жанр: Драма, мелодрама Режиссер: Александр Франскевич-Лайе В ролях: Любовь Толкалина, Владимир Гостюхин, Юрий Чурсин, Андрей Милюхин, Виктория Маслова, Анна Снаткина, Андрей Душечкин, Александр Дьяченко, Денис Паршин, Владимир Гуськов (II), Игорь Сигов, Дмитрий Фрид, Алексей Комашко, Лидия Вележева, Виктория Толстоганова О фильме: У крупного предпринимателя Сергея Градова возникает конфликт с его многолетним деловым партнером Александром Рубцовым. Причиной конфликта становится Гурьяновский машиностроительный завод. Рубцов считает, что нужно избавиться от убыточного предприятия, а Градов уверен, что заводу нужна модернизация. Градов не догадывается, что истинной причиной отказа Рубцова от завода является семейная драма двадцатипятилетней давности. Страна: Россия Студия: Кинокомпания "Кондор" Перевод: не требуется Файл Формат: MKV Качество: WEBRip 720p Видео : MPEG-4, ~ 2569 Кбит/с, 1280x720, 25 кадр/с Аудио : AC3, 2 ch, 256 Кбит/с RUS Продолжительность: 12 x ~ 00:49:08 Язык: Русский Субтитры: Русские (AI) Реклама: Отсутствует
[+] МИ General Unique ID : 187793681890978642586433283125491050065 (0x8D47BF5E42C82254B95124885838A651) Complete name : G:Rvanyij.veter.S01.WEB-DL.720p.ExKinoRayRvanyij.veter.S01.E01.WEB-DL.720p.ExKinoRay.mkv Format : Matroska Format version : Version 4 File size : 991 MiB Duration : 49 min 8 s Overall bit rate : 2 820 kb/s Encoded date : UTC 2024-02-02 11:59:42 Writing application : mkvmerge v6.9.1 ('Blue Panther') 64bit built on Apr 18 2014 18:23:38 Writing library : libebml v1.3.0 + libmatroska v1.4.1 Video ID : 1 Format : AVC Format/Info : Advanced Video Codec Format profile : High@L4 Format settings : CABAC / 4 Ref Frames Format settings, CABAC : Yes Format settings, Reference frames : 4 frames Codec ID : V_MPEG4/ISO/AVC Duration : 49 min 8 s Bit rate : 2 569 kb/s Width : 1 280 pixels Height : 720 pixels Display aspect ratio : 16:9 Frame rate mode : Constant Frame rate : 25.000 FPS Color space : YUV Chroma subsampling : 4:2:0 Bit depth : 8 bits Scan type : Progressive Bits/(Pixel*Frame) : 0.112 Stream size : 881 MiB (89%) Writing library : x264 core 152 r2854 e9a5903 Encoding settings : cabac=1 / ref=3 / deblock=1:0:0 / analyse=0x3:0x113 / me=hex / subme=7 / psy=1 / psy_rd=1.00:0.00 / mixed_ref=1 / me_range=16 / chroma_me=1 / trellis=1 / 8x8dct=1 / cqm=0 / deadzone=21,11 / fast_pskip=1 / chroma_qp_offset=-2 / threads=22 / lookahead_threads=3 / sliced_threads=0 / nr=0 / decimate=1 / interlaced=0 / bluray_compat=0 / constrained_intra=0 / bframes=6 / b_pyramid=2 / b_adapt=1 / b_bias=0 / direct=1 / weightb=1 / open_gop=0 / weightp=2 / keyint=50 / keyint_min=26 / scenecut=0 / intra_refresh=0 / rc_lookahead=40 / rc=2pass / mbtree=1 / bitrate=2569 / ratetol=1.0 / qcomp=0.60 / qpmin=0 / qpmax=69 / qpstep=4 / cplxblur=20.0 / qblur=0.5 / vbv_maxrate=3854 / vbv_bufsize=10279 / nal_hrd=none / filler=0 / ip_ratio=1.40 / aq=1:1.00 Language : Russian Default : Yes Forced : No Audio ID : 2 Format : AC-3 Format/Info : Audio Coding 3 Commercial name : Dolby Digital Codec ID : A_AC3 Duration : 49 min 8 s Bit rate mode : Constant Bit rate : 256 kb/s Channel(s) : 2 channels Channel layout : L R Sampling rate : 48.0 kHz Frame rate : 31.250 FPS (1536 SPF) Compression mode : Lossy Stream size : 90.0 MiB (9%) Language : Russian Service kind : Complete Main Default : Yes Forced : No Text ID : 3 Format : UTF-8 Codec ID : S_TEXT/UTF8 Codec ID/Info : UTF-8 Plain Text Language : Russian Default : No Forced : No
[+] Скриншоты
Релиз от:

Всего файлов в раздаче: 12 
Rvanyij.veter.S01.E01.WEB-DL.720p.ExKinoRay.mkv991.12 MB
Rvanyij.veter.S01.E02.WEB-DL.720p.ExKinoRay.mkv1.02 GB
Rvanyij.veter.S01.E03.WEB-DL.720p.ExKinoRay.mkv1.01 GB
Rvanyij.veter.S01.E04.WEB-DL.720p.ExKinoRay.mkv1.01 GB
Rvanyij.veter.S01.E05.WEB-DL.720p.ExKinoRay.mkv1009.89 MB
Rvanyij.veter.S01.E06.WEB-DL.720p.ExKinoRay.mkv1019.97 MB
Rvanyij.veter.S01.E07.WEB-DL.720p.ExKinoRay.mkv1018.38 MB
Rvanyij.veter.S01.E08.WEB-DL.720p.ExKinoRay.mkv1.01 GB
Rvanyij.veter.S01.E09.WEB-DL.720p.ExKinoRay.mkv1.02 GB
Rvanyij.veter.S01.E10.WEB-DL.720p.ExKinoRay.mkv1.02 GB
Показать все файлы

Похожие раздачи по запросу - Рваный
2024-02-03 magnet Рваный ветер / Обратный билет [S01] (2019) WEBRip-AVC от Files-х 7.64 GB ↑ 0 ↓ 0
2024-02-02 magnet Рваный ветер / Серии: 1-12 из 12 [2019, драма, WEBRip-AVC] от Aleksan55 7.66 GB ↑ 0 ↓ 0
2024-02-02 magnet Рваный ветер / Обратный билет [S01] (2019) WEBRip 8.16 GB ↑ 0 ↓ 0
2024-02-02 magnet Рваный ветер / Обратный билет [S01] (2019) WEBRip 1080p 22.90 GB ↑ 0 ↓ 0

Комментарии


Зарегистрируйтесь чтобы добавить комментарий
Торрент клиент
byTorrent - программа для загрузки торрент-файлов.

Скачать byTorrent.exe (1,5 МБ)

Скачать byTorrent.zip (0,6 МБ)

Поддержи torrent.by
российских рублей
(300 российских рублей это 4$)

Обратная связь rss

End game ©