↑↓torrent.by
Поиск
Логин:  Регистрация
Пароль:

Банши / Banshee [S01] (2013) BDRip-HEVC 1080p от RIPS CLUB | TVShows, DadLab, NewStudio, 2x2

download Скачать торрент-файл   magnet Магнитная ссылка Размер: 22.29 GB Добавлен: 2024-02-04 05:00
Пиры будут получены из сети DHT
Последний сидер был замечен 2024-02-04 20:22
Название: Банши Оригинальное название: Banshee Год производства: 2013 Производство: США / Cinemax, Your Face Goes Here Entertainment Жанр: боевик, триллер, драма, криминал, детектив Режиссёр: Оле Кристиан Мадсен, Грег Яйтанс, Лони Перистер В ролях: Энтони Старр, Ивана Миличевич, Ульрих Томсен, Хун Ли, Фрэнки Фэйзон, Лили Симмонс, Триесте Келли Данн, Рас Блэквелл, Мэтт Сервитто, Деметриус Гросс О фильме: Лукас Худ — отбывший наказание в тюрьме вор, который некогда предал своих подельников. После отсидки он приезжает в небольшой городок в Пенсильвании, носящий название Банши, где обманом получает пост местного шерифа. Но это не значит, что он забыл своё криминальное прошлое и теперь служит закону. Гангстеры, которых он когда-то предал, всё еще помнят про него и стремятся отомстить. Назревает жесткое противостояние между новоявленным шерифом и его бывшими приятелями. Спокойствие местного населения нарушается, а убийство следует за убийством, когда шериф начинает «наводить порядок» во вверенном его заботам городке. Продолжительность: ~00:59:00 серия Перевод: многоголосый профессиональный Качество: BDRip-HEVC 1080p Кодек: HEVC (x265) Видео: 1920x1080, 3482-5808 Kbps, HEVC (Main10@L.4.1@High) 10 бит Звук: Аудио1: AC3, 6 ch, 384 Kbps - Русский, MVO (TVShows) Аудио2: AC3, 6 ch, 384 Kbps - Русский, MVO (DadLab по заказу Amedia) Аудио3: AC3, 6 ch, 384 Kbps - Русский, MVO (NewStudio без цензуры) Аудио4: AC3, 2 ch, 192 Kbps - Русский, MVO (2x2 / Кравец) Аудио5: AC3, 6 ch, 640 Kbps - Английский Субтитры: русские, английские Навигация по главам: Есть
[+] Лог (x265 info) + Mediainfo x265 info: frame I: 363, Avg QP:17.30 kb/s: 16610.35 x265 info: frame P: 16964, Avg QP:18.78 kb/s: 9041.68 x265 info: frame B: 68354, Avg QP:20.98 kb/s: 2464.42 x265 info: Weighted P-Frames: Y:4.6% UV:3.8% x265 info: Weighted B-Frames: Y:2.5% UV:1.9% x265 info: consecutive B-frames: 7.1% 6.3% 6.1% 38.2% 5.9% 10.6% 2.7% 20.5% 0.5% 0.5% 0.2% 1.3% x265 info: encoded 85681 frames in 107611.89s (0.80 fps), 3826.59 kb/s, Avg QP:20.53 Общее Уникальный идентификатор : 236583189129284844009729915191383610949 (0xB1FC43CBC91EA2A8CBCD15717098D645) Полное имя : \.Banshee.S01E01.Pilot.mkv Формат : Matroska Версия формата : Version 4 Размер файла : 2,42 Гбайт Продолжительность : 59 м. 34 с. Общий поток : 5 816 Кбит/сек Частота кадров : 23,976 кадра/сек Название фильма : Banshee.S01E01.Pilot / Пилот Трек/Положение : 1 Кодирование произвёл : OldGamer Тип содержимого : TV Show Описание : После 15 лет пребывания в тюрьме, главный герой выходит на свободу. В Нью-Йорке на него нападает группа гангстеров, отбившись от них, он направляется в маленький городок Банши, штат Пенсильвания. Дата выпуска : 2013-01-11 Дата записи : 2013-01-11 Программа кодирования : mkvmerge v82.0 ('I'm The President') 64-bit Библиотека кодирования : libebml v1.4.5 + libmatroska v1.7.1 Обложка : Yes Attachments : cover.jpg ACTOR : Antony Starr, Ivana Miličević, Ulrich Thomsen, Frankie Faison, Hoon Lee, Trieste Kelly Dunn, Lili Simmons, Demetrius Grosse, Matt Servitto, Ryann Shane, Rus Blackwell, Ben Cross, Matthew Rauch, Anthony Ruivivar, Daniel Ross Owens, Gabriel Suttle, Déj... ARTIST : Antony Starr, Ivana Miličević, Ulrich Thomsen, Frankie Faison, Hoon Lee, Trieste Kelly Dunn, Lili Simmons, Demetrius Grosse, Matt Servitto, Ryann Shane, Rus Blackwell, Ben Cross, Matthew Rauch, Anthony Ruivivar, Daniel Ross Owens, Gabriel Suttle, Déj... DIRECTOR : Greg Yaitanes EPISODE.PART_NUM : 1 GENRE : криминал, драма LAW_RATING : TV-MA PRODUCER : Stephanie Laing RATING : TV-MA SCREENPLAY_BY : Jonathan Tropper, David Schickler SEASON.PART_NUM : 1 SUMMARY : После 15 лет пребывания в тюрьме, главный герой выходит на свободу. В Нью-Йорке на него нападает группа гангстеров, отбившись от них, он направляется в маленький городок Банши, штат Пенсильвания. SYNOPSIS : После 15 лет пребывания в тюрьме, главный герой выходит на свободу. В Нью-Йорке на него нападает группа гангстеров, отбившись от них, он направляется в маленький городок Банши, штат Пенсильвания. WRITTEN_BY : Jonathan Tropper, David Schickler Видео Идентификатор : 1 Формат : HEVC Формат/Информация : High Efficiency Video Coding Профиль формата : Main 10@L4.1@High Идентификатор кодека : V_MPEGH/ISO/HEVC Продолжительность : 59 м. 33 с. Битрейт : 3 827 Кбит/сек Ширина : 1 920 пикселей Высота : 1 080 пикселей Соотношение сторон : 16:9 Режим частоты кадров : Постоянный Частота кадров : 23,976 (24000/1001) кадра/сек Цветовое пространство : YUV Субдискретизация насыщенности : 4:2:0 Битовая глубина : 10 бит Бит/(Пиксели*Кадры) : 0.077 Размер потока : 1,59 Гбайт (66%) Заголовок : Banshee S01E01 / Rip by OldGamer Библиотека кодирования : x265 2.9+9-f74003e88622: 10bit Настройки программы : cpuid=1111039 / frame-threads=14 / wpp / no-pmode / no-pme / no-psnr / no-ssim / log-level=3 / input-csp=1 / input-res=1920x1080 / interlace=0 / total-frames=0 / level-idc=41 / high-tier=1 / uhd-bd=0 / ref=5 / allow-non-conformance / no-repeat-headers / annexb / no-aud / no-hrd / info / hash=0 / no-temporal-layers / open-gop / min-keyint=23 / keyint=240 / gop-lookahead=0 / bframes=11 / b-adapt=2 / b-pyramid / bframe-bias=0 / rc-lookahead=60 / lookahead-slices=6 / scenecut=40 / radl=0 / no-intra-refresh / ctu=64 / min-cu-size=8 / rect / amp / max-tu-size=32 / tu-inter-depth=4 / tu-intra-depth=4 / limit-tu=1 / rdoq-level=2 / dynamic-rd=0.00 / no-ssim-rd / signhide / no-tskip / nr-intra=0 / nr-inter=0 / no-constrained-intra / no-strong-intra-smoothing / max-merge=5 / limit-refs=2 / no-limit-modes / me=3 / subme=7 / merange=57 / temporal-mvp / weightp / weightb / no-analyze-src-pics / deblock=-3:-3 / no-sao / no-sao-non-deblock / rd=6 / no-early-skip / rskip / no-fast-intra / no-tskip-fast / no-cu-lossless / no-b-intra / no-splitrd-skip / rdpenalty=0 / psy-rd=2.00 / psy-rdoq=1.00 / no-rd-refine / no-lossless / cbqpoffs=0 / crqpoffs=0 / rc=crf / crf=20.5 / qcomp=0.65 / qpstep=4 / stats-write=0 / stats-read=0 / vbv-maxrate=50000 / vbv-bufsize=50000 / vbv-init=0.9 / crf-max=0.0 / crf-min=0.0 / ipratio=1.40 / pbratio=1.30 / aq-mode=2 / aq-strength=0.80 / no-cutree / zone-count=0 / no-strict-cbr / qg-size=32 / no-rc-grain / qpmax=69 / qpmin=0 / no-const-vbv / sar=1 / overscan=0 / videoformat=5 / range=0 / colorprim=2 / transfer=2 / colormatrix=2 / chromaloc=0 / display-window=0 / max-cll=0,0 / min-luma=0 / max-luma=1023 / log2-max-poc-lsb=8 / vui-timing-info / vui-hrd-info / slices=1 / no-opt-qp-pps / no-opt-ref-list-length-pps / no-multi-pass-opt-rps / scenecut-bias=0.00 / no-opt-cu-delta-qp / aq-motion / no-hdr / no-hdr-opt / no-dhdr10-opt / no-idr-recovery-sei / analysis-reuse-level=5 / scale-factor=0 / refine-intra=0 / refine-inter=0 / refine-mv=0 / no-limit-sao / ctu-info=0 / no-lowpass-dct / refine-mv-type=0 / copy-pic=1 / max-ausize-factor=1.0 / no-dynamic-refine / no-single-sei Язык : English Default : Да Forced : Нет Цветовой диапазон : Limited Аудио #1 Идентификатор : 2 Формат : AC-3 Формат/Информация : Audio Coding 3 Коммерческое название : Dolby Digital Идентификатор кодека : A_AC3 Продолжительность : 59 м. 34 с. Вид битрейта : Постоянный Битрейт : 384 Кбит/сек Каналы : 6 каналов Channel layout : L R C LFE Ls Rs Частота : 48,0 КГц Частота кадров : 31,250 кадров/сек (1536 SPF) Метод сжатия : С потерями Размер потока : 164 Мбайт (7%) Заголовок : MVO (TVShows) Язык : Russian Service kind : Complete Main Default : Нет Forced : Нет Аудио #2 Идентификатор : 3 Формат : AC-3 Формат/Информация : Audio Coding 3 Коммерческое название : Dolby Digital Идентификатор кодека : A_AC3 Продолжительность : 59 м. 34 с. Вид битрейта : Постоянный Битрейт : 384 Кбит/сек Каналы : 6 каналов Channel layout : L R C LFE Ls Rs Частота : 48,0 КГц Частота кадров : 31,250 кадров/сек (1536 SPF) Метод сжатия : С потерями Размер потока : 164 Мбайт (7%) Заголовок : MVO (DadLab по заказу Amedia) Язык : Russian Service kind : Complete Main Default : Да Forced : Нет Аудио #3 Идентификатор : 4 Формат : AC-3 Формат/Информация : Audio Coding 3 Коммерческое название : Dolby Digital Идентификатор кодека : A_AC3 Продолжительность : 59 м. 33 с. Вид битрейта : Постоянный Битрейт : 384 Кбит/сек Каналы : 6 каналов Channel layout : L R C LFE Ls Rs Частота : 48,0 КГц Частота кадров : 31,250 кадров/сек (1536 SPF) Метод сжатия : С потерями Размер потока : 164 Мбайт (7%) Заголовок : MVO (NewStudio без цензуры) Язык : Russian Service kind : Complete Main Default : Нет Forced : Нет Аудио #4 Идентификатор : 5 Формат : AC-3 Формат/Информация : Audio Coding 3 Коммерческое название : Dolby Digital Идентификатор кодека : A_AC3 Продолжительность : 59 м. 33 с. Вид битрейта : Постоянный Битрейт : 192 Кбит/сек Каналы : 2 канала Channel layout : L R Частота : 48,0 КГц Частота кадров : 31,250 кадров/сек (1536 SPF) Метод сжатия : С потерями Размер потока : 81,8 Мбайт (3%) Заголовок : MVO (2x2 / Кравец) Язык : Russian Service kind : Complete Main Default : Нет Forced : Нет Аудио #5 Идентификатор : 6 Формат : AC-3 Формат/Информация : Audio Coding 3 Коммерческое название : Dolby Digital Идентификатор кодека : A_AC3 Продолжительность : 59 м. 34 с. Вид битрейта : Постоянный Битрейт : 640 Кбит/сек Каналы : 6 каналов Channel layout : L R C LFE Ls Rs Частота : 48,0 КГц Частота кадров : 31,250 кадров/сек (1536 SPF) Метод сжатия : С потерями Размер потока : 273 Мбайт (11%) Язык : English Service kind : Complete Main Default : Нет Forced : Нет Текст #1 Идентификатор : 7 Формат : UTF-8 Идентификатор кодека : S_TEXT/UTF8 Идентификатор кодека/Информация : UTF-8 Plain Text Продолжительность : 55 м. 25 с. Битрейт : 80 бит/сек Частота кадров : 0,189 кадр/сек Count of elements : 627 Размер потока : 32,6 Кбайт (0%) Заголовок : RUS Язык : Russian Default : Нет Forced : Нет Текст #2 Идентификатор : 8 Формат : UTF-8 Идентификатор кодека : S_TEXT/UTF8 Идентификатор кодека/Информация : UTF-8 Plain Text Продолжительность : 55 м. 25 с. Битрейт : 80 бит/сек Частота кадров : 0,189 кадр/сек Count of elements : 627 Размер потока : 32,6 Кбайт (0%) Заголовок : ALEXXX & Co Язык : Russian Default : Нет Forced : Нет Текст #3 Идентификатор : 9 Формат : UTF-8 Идентификатор кодека : S_TEXT/UTF8 Идентификатор кодека/Информация : UTF-8 Plain Text Продолжительность : 55 м. 38 с. Битрейт : 69 бит/сек Частота кадров : 0,182 кадр/сек Count of elements : 606 Размер потока : 28,2 Кбайт (0%) Заголовок : FullRUS_Amedia Язык : Russian Default : Нет Forced : Нет Текст #4 Идентификатор : 10 Формат : UTF-8 Идентификатор кодека : S_TEXT/UTF8 Идентификатор кодека/Информация : UTF-8 Plain Text Продолжительность : 55 м. 25 с. Битрейт : 80 бит/сек Частота кадров : 0,188 кадр/сек Count of elements : 626 Размер потока : 32,6 Кбайт (0%) Заголовок : FullRUS (18+) Язык : Russian Default : Нет Forced : Нет Текст #5 Идентификатор : 11 Формат : UTF-8 Идентификатор кодека : S_TEXT/UTF8 Идентификатор кодека/Информация : UTF-8 Plain Text Продолжительность : 55 м. 25 с. Битрейт : 46 бит/сек Частота кадров : 0,175 кадр/сек Count of elements : 582 Размер потока : 18,7 Кбайт (0%) Заголовок : FullENG Язык : English Default : Нет Forced : Нет Меню 00:00:00.000 : en:00:00:00.000 00:07:38.249 : en:00:07:38.249 00:14:28.701 : en:00:14:28.701 00:23:52.598 : en:00:23:52.598 00:33:14.075 : en:00:33:14.075 00:40:05.111 : en:00:40:05.111 00:48:01.796 : en:00:48:01.796 00:58:02.979 : en:00:58:02.979
[+] Скриншоты
Релиз от: OldGamer

Всего файлов в раздаче: 10 
Banshee.S01E01.Pilot.mkv2.42 GB
Banshee.S01E02.The.Rave.mkv2.77 GB
Banshee.S01E03.Meet.the.New.Boss.mkv1.84 GB
Banshee.S01E04.Half.Deaf.is.Better.Than.All.Dead.mkv2.74 GB
Banshee.S01E05.The.Kindred.mkv2.29 GB
Banshee.S01E06.Wicks.mkv2.09 GB
Banshee.S01E07.Behold.a.Pale.Rider.mkv1.99 GB
Banshee.S01E08.We.Shall.Live.Forever.mkv2.16 GB
Banshee.S01E09.Always.the.Cowboy.mkv1.78 GB
Banshee.S01E10.A.Mixture.of.Madness.mkv2.21 GB

Похожие раздачи по запросу - Банши
2024-02-12 magnet Банши / Banshee [S03] (2015) BDRip-HEVC 1080p от RIPS CLUB | Пифагор, TVShows, NewStudio, 2x2 26.31 GB ↑ 0 ↓ 0
2024-02-06 magnet Банши / Banshee [S02] (2014) BDRip-HEVC 1080p от RIPS CLUB | Пифагор, TVShows, NewStudio, 2x2 22.81 GB ↑ 0 ↓ 0
2023-11-11 magnet Банши / Banshee [S01-04] (2013-2016) BDRip | Amedia 2К29.97 GB ↑ 1 ↓ 1
2022-09-30 magnet Месть Банши / Code Name Banshee (2022) BDRip от MegaPeer | D 746.17 MB ↑ 0 ↓ 0

Комментарии


Зарегистрируйтесь чтобы добавить комментарий
Торрент клиент
byTorrent - программа для загрузки торрент-файлов.

Скачать byTorrent.exe (1,5 МБ)

Скачать byTorrent.zip (0,6 МБ)

Поддержи torrent.by
российских рублей
(300 российских рублей это 4$)

Обратная связь rss

End game ©