↑↓torrent.by
Поиск
Логин:  Регистрация
Пароль:

Королевство зверей / Королівство тварин / The Animal Kingdom / Le règne animal (2023) WEB-DL 1080p | D | Line | UKR

download Скачать торрент-файл   magnet Магнитная ссылка Размер: 6.33 GB Добавлен: 2024-02-04 05:00
Пиры будут получены из сети DHT
Последний сидер был замечен 2024-02-11 08:26
Информация о фильме Название: Королевство зверей Оригинальное название: Le règne animal Год выхода: 2023 Жанр: фантастика, драма, детектив, приключения Режиссер: Тома Кайе В ролях: Ромен Дюрис, Поль Киршер, Адель Экзаркопулос, Том Мерсье, Билли Блэйн, Ксавьер Обер, Саадиа Бентайеб, Габриэль Кабальеро, Илиана Хелифа, Поль Мугуруза О фильме: Мир охвачен волной неизвестной мутации, которая превращает людей в зверей. Опасны ли мутанты? Как передаётся заболевание? Франсуа делает всё, чтобы спасти свою заражённую жену Лану. Когда её отправляют в больничный филиал на юге Франции, он с 16-летним сыном Эмилем едет следом. В результате аварии некоторые из существ, среди которых может быть жена Франсуа, исчезают. Отец с сыном начинают поиски Ланы, которые навсегда изменят их жизнь. Страна: Франция, Бельгия Студия: Artémis Productions, Canal+ , Centre National du Cinéma, Ciné, Cinéaxe 4 Продолжительность: 02:07:18 Перевод: Дублированный | Line (Украинский) Файл Кодек: x.264 Качество: WEB-DL 1080p Видео: AVC, 1920x804 (2.40:1), 24.000 fps, 6 543 kb/s Аудио 1: AC3, 48.0 kHz, 2 ch, 192 kb/s | UKR Аудио 2: AC3, 48.0 kHz, 6 ch, 384 kb/s | FRE Субтитры: отсутствуют Трейлер | Сэмпл
[+] MIGeneral Unique ID : 119695407945879138739678857978954695221 (0x5A0C7F3DCEC8D78DF4893BC45F74C235) Complete name : Le.Regne.Animal.2023.UKR.FRE.1080p.WEB-DL.mkv Format : Matroska Format version : Version 4 File size : 6.33 GiB Duration : 2 h 7 min Overall bit rate : 7 122 kb/s Movie name : Le règne animal Encoded date : UTC 2024-02-01 19:48:02 Writing application : mkvmerge v80.0 ('Roundabout') 64-bit Writing library : libebml v1.4.4 + libmatroska v1.7.1 Video ID : 1 Format : AVC Format/Info : Advanced Video Codec Format profile : High@L4 Format settings : CABAC / 5 Ref Frames Format settings, CABAC : Yes Format settings, Reference frames : 5 frames Codec ID : V_MPEG4/ISO/AVC Duration : 2 h 7 min Bit rate : 6 543 kb/s Width : 1 920 pixels Height : 804 pixels Display aspect ratio : 2.40:1 Frame rate mode : Constant Frame rate : 24.000 FPS Color space : YUV Chroma subsampling : 4:2:0 Bit depth : 8 bits Scan type : Progressive Bits/(Pixel*Frame) : 0.177 Stream size : 5.82 GiB (92%) Default : Yes Forced : No Color range : Limited Color primaries : BT.709 Transfer characteristics : BT.709 Matrix coefficients : BT.709 Audio #1 ID : 2 Format : AC-3 Format/Info : Audio Coding 3 Commercial name : Dolby Digital Codec ID : A_AC3 Duration : 2 h 7 min Bit rate mode : Constant Bit rate : 192 kb/s Channel(s) : 2 channels Channel layout : L R Sampling rate : 48.0 kHz Frame rate : 31.250 FPS (1536 SPF) Compression mode : Lossy Stream size : 175 MiB (3%) Language : Ukrainian Service kind : Complete Main Default : Yes Forced : Yes Audio #2 ID : 3 Format : AC-3 Format/Info : Audio Coding 3 Commercial name : Dolby Digital Codec ID : A_AC3 Duration : 2 h 7 min Bit rate mode : Constant Bit rate : 384 kb/s Channel(s) : 6 channels Channel layout : L R C LFE Ls Rs Sampling rate : 48.0 kHz Frame rate : 31.250 FPS (1536 SPF) Compression mode : Lossy Stream size : 350 MiB (5%) Title : VFF Language : French Service kind : Complete Main Default : Yes Forced : No
[+] Скриншоты

Всего файлов в раздаче: 1 
Le.Regne.Animal.2023.UKR.FRE.1080p.WEB-DL.mkv6.33 GB

Похожие раздачи по запросу - Королевство
2024-02-11 magnet Королевство зверей / Le regne animal / The Animal Kingdom [2023, ужасы, фантастика, драма, детектив, приключения, HDRip-AVC] DVO (ViruseProject) 1.46 GB ↑ 1 ↓ 1
2024-02-10 magnet Королевство зверей / Le règne animal / The Animal Kingdom (2023) BDRip 1080p от ExKinoRay | ViruseProject 13.69 GB ↑ 0 ↓ 0
2024-02-10 magnet Королевство зверей / Le règne animal / The Animal Kingdom (2023) BDRip 1080p от New-Team | P2 | ViruseProject 13.33 GB ↑ 0 ↓ 0
2024-02-10 magnet Королевство зверей / Le règne animal / The Animal Kingdom (2023) BDRip 1080p | ViruseProject 11.20 GB ↑ 0 ↓ 0
2024-02-10 magnet Королевство зверей / Le règne animal / The Animal Kingdom (2023) BDRip от MegaPeer | P2 | ViruseProject 1.46 GB ↑ 0 ↓ 0
2024-02-04 magnet Королевство зверей / Королівство тварин / The Animal Kingdom / Le règne animal (2023) WEB-DL-HEVC 2160p | 4K | HDR | Dolby Vision Profile 8 | D | Line | UKR 21.78 GB ↑ 0 ↓ 0
2023-04-25 magnet Последнее королевство: Семь королей должны умереть / The Last Kingdom: Seven Kings Must Die (2023) WEB-DLRip-AVC от ExKinoRay | LostFilm 741.86 MB ↑ 0 ↓ 0

Комментарии


Зарегистрируйтесь чтобы добавить комментарий
Торрент клиент
byTorrent - программа для загрузки торрент-файлов.

Скачать byTorrent.exe (1,5 МБ)

Скачать byTorrent.zip (0,6 МБ)

Поддержи torrent.by
российских рублей
(300 российских рублей это 4$)

Обратная связь rss

End game ©