↑↓torrent.by
Поиск
Логин:  Регистрация
Пароль:

Аквамен и потерянное царство / Aquaman And The Lost Kingdom (2023) WEB-DL-HEVC 2160p | 4K | HDR | Dolby Vision Profile 8 | D, P

download Скачать торрент-файл   magnet Магнитная ссылка Размер: 22.63 GB Добавлен: 2024-02-04 05:00
Пиры будут получены из сети DHT
Последний сидер был замечен 2024-02-12 08:39
Название: Аквамен и потерянное царство Оригинальное название: Aquaman And The Lost Kingdom Год выхода: 2023 Производство: США, Великобритания, Канада, Австралия, Исландия / DC Studios, Atomic Monster, The Safran Company, Domain Entertainment Жанр: Фантастика, фэнтези, боевик, приключения Перевод: Дублированный, профессиональный многоголосый Продолжительность: 02:04:07 Режиссёр: Джеймс Ван В ролях: Джейсон Момоа, Патрик Уилсон, Яхья Абдул-Матин II, Дольф Лундгрен, Темуэра Моррисон, Николь Кидман, Яни Жао, Эмбер Хёрд, Винсент Риган, Рэндалл Пак Описание: Атлантиде грозит опасность - злодей Чёрная Манта, одержимый стремлением отомстить за своего отца, овладел разрушительной мощью Чёрного трезубца и теперь не остановится ни перед чем. Ради спасения королевства и близких людей, Аквамену придётся объединить силы со своим сводным братом, Ормом - свергнутым королём Атлантиды, заключённым в тюрьму и забыть обо всех разногласиях, которые были между ними. Формат: MKV Качество: WEB-DL 2160p Видео: MPEG-H/HEVC, 3840x2160, ~24,2 Mbps, 0.122 бит/(Пиксели*Кадры), 23.976 fps Аудио 1: E-AC3, 6 ch, 384 kb/s - Русский дублированный (SC Produb) Аудио 2: E-AC3, 6 ch, 768 kb/s - Русский MVO (Jaskier) Аудио 3: E-AC3 JOC, 6 ch, 768 kb/s - Английский Субтитры: Русские (Forced, Full), Английские (Full, SDH)
[+] MediainfoGeneral Уникальный идентификатор : 139058459811452391066902384303353026871 (0x689DAF67C49DC528B3AA12BE5666D937) Полное имя : T:RELEASESAquaman-2Aquaman.and.the.Lost.Kingdom.2023.2160p.WEB-DL.DDP5.1.Atmos.HDR.DV.HP8.by.DVT.mkv Формат : Matroska Версия формата : Version 4 Размер файла : 22.6 GiB Продолжительность : 2 h 4 min Общий поток : 26.1 Mb/s Частота кадров : 23.976 FPS Название фильма : Aquaman and the Lost Kingdom (2023) - Release by DVT Дата кодирования : 2024-01-27 15:06:41 UTC Программа кодирования : mkvmerge v82.0 ('I'm The President') 64-bit Библиотека кодирования : libebml v1.4.5 + libmatroska v1.7.1 Обложка : Yes Attachments : cover.jpg Video Идентификатор : 1 Формат : HEVC Формат/Информация : High Efficiency Video Coding Профиль формата : Main 10@L5@High HDR format : Dolby Vision, Version 1.0, dvhe.08.06, BL+RPU, HDR10 compatible / SMPTE ST 2086, HDR10 compatible Идентификатор кодека : V_MPEGH/ISO/HEVC Продолжительность : 2 h 4 min Битрейт : 24.2 Mb/s Ширина : 3 840 pixels Высота : 2 160 pixels Соотношение сторон : 16:9 Режим частоты кадров : Constant Частота кадров : 23.976 (23976/1000) FPS Цветовое пространство : YUV Субдискретизация насыщенности : 4:2:0 (Type 2) Битовая глубина : 10 bits Бит/(Пиксели*Кадры) : 0.122 Размер потока : 21.0 GiB (93%) Заголовок : Aquaman and the Lost Kingdom (2023) Язык : English Default : Yes Forced : No Цветовой диапазон : Limited Основные цвета : BT.2020 Характеристики трансфера : PQ Коэффициенты матрицы : BT.2020 non-constant Mastering display color primaries : BT.2020 Mastering display luminance : min: 0.0050 cd/m2, max: 1000 cd/m2 Maximum Content Light Level : 2339 cd/m2 Maximum Frame-Average Light Level : 994 cd/m2 Audio #1 Идентификатор : 2 Формат : E-AC-3 Формат/Информация : Enhanced AC-3 Коммерческое название : Dolby Digital Plus Идентификатор кодека : A_EAC3 Продолжительность : 2 h 4 min Вид битрейта : Constant Битрейт : 384 kb/s Каналы : 6 channels Channel layout : L R C LFE Ls Rs Частота : 48.0 kHz Частота кадров : 31.250 FPS (1536 SPF) Метод сжатия : Lossy Размер потока : 341 MiB (1%) Заголовок : Дубляж, SC Produb Язык : Russian Service kind : Complete Main Default : Yes Forced : No Audio #2 Идентификатор : 3 Формат : E-AC-3 Формат/Информация : Enhanced AC-3 Коммерческое название : Dolby Digital Plus Идентификатор кодека : A_EAC3 Продолжительность : 2 h 4 min Вид битрейта : Constant Битрейт : 768 kb/s Каналы : 6 channels Channel layout : L R C LFE Ls Rs Частота : 48.0 kHz Частота кадров : 31.250 FPS (1536 SPF) Метод сжатия : Lossy Размер потока : 682 MiB (3%) Заголовок : MVO, Jaskier Язык : Russian Service kind : Complete Main Default : No Forced : No Audio #3 Идентификатор : 4 Формат : E-AC-3 JOC Формат/Информация : Enhanced AC-3 with Joint Object Coding Коммерческое название : Dolby Digital Plus with Dolby Atmos Идентификатор кодека : A_EAC3 Продолжительность : 2 h 4 min Вид битрейта : Constant Битрейт : 768 kb/s Каналы : 6 channels Channel layout : L R C LFE Ls Rs Частота : 48.0 kHz Частота кадров : 31.250 FPS (1536 SPF) Метод сжатия : Lossy Размер потока : 682 MiB (3%) Заголовок : Original Язык : English Service kind : Complete Main Default : No Forced : No Complexity index : 16 Number of dynamic objects : 15 Bed channel count : 1 channel Bed channel configuration : LFE Text #1 Идентификатор : 5 Формат : UTF-8 Идентификатор кодека : S_TEXT/UTF8 Идентификатор кодека/Информация : UTF-8 Plain Text Продолжительность : 1 h 56 min Битрейт : 0 b/s Частота кадров : 0.003 FPS Count of elements : 20 Размер потока : 846 Bytes (0%) Заголовок : Forced Язык : Russian Default : Yes Forced : No Text #2 Идентификатор : 6 Формат : UTF-8 Идентификатор кодека : S_TEXT/UTF8 Идентификатор кодека/Информация : UTF-8 Plain Text Продолжительность : 2 h 3 min Битрейт : 58 b/s Частота кадров : 0.139 FPS Count of elements : 1025 Размер потока : 53.0 KiB (0%) Заголовок : Full Язык : Russian Default : No Forced : No Text #3 Идентификатор : 7 Формат : UTF-8 Идентификатор кодека : S_TEXT/UTF8 Идентификатор кодека/Информация : UTF-8 Plain Text Продолжительность : 1 h 57 min Битрейт : 47 b/s Частота кадров : 0.169 FPS Count of elements : 1192 Размер потока : 41.0 KiB (0%) Заголовок : Full Язык : English Default : No Forced : No Text #4 Идентификатор : 8 Формат : UTF-8 Идентификатор кодека : S_TEXT/UTF8 Идентификатор кодека/Информация : UTF-8 Plain Text Продолжительность : 1 h 57 min Битрейт : 58 b/s Частота кадров : 0.235 FPS Count of elements : 1660 Размер потока : 50.8 KiB (0%) Заголовок : SDH Язык : English Default : No Forced : No Menu 00:00:00.000 : en:Chapter 01 00:07:42.212 : en:Chapter 02 00:17:39.934 : en:Chapter 03 00:22:21.216 : en:Chapter 04 00:26:32.050 : en:Chapter 05 00:37:26.037 : en:Chapter 06 00:43:56.094 : en:Chapter 07 00:51:45.605 : en:Chapter 08 00:59:12.010 : en:Chapter 09 01:05:55.622 : en:Chapter 10 01:14:39.729 : en:Chapter 11 01:23:37.267 : en:Chapter 12 01:28:33.938 : en:Chapter 13 01:36:11.062 : en:Chapter 14 01:47:28.239 : en:Chapter 15 01:52:56.401 : en:Chapter 16
[+] Скриншоты

Всего файлов в раздаче: 1 
Aquaman.and.the.Lost.Kingdom.2023.2160p.WEB-DL.DDP5.1.Atmos.HDR.DV.HP8.by.DVT.mkv22.63 GB

Похожие раздачи по запросу - Аквамен
2024-02-13 magnet Аквамен и потерянное царство / Aquaman and the Lost Kingdom (2023) WEB-DL 720p от селезень | D, P 5.32 GB ↑ 0 ↓ 0
2024-02-12 magnet Аквамен и потерянное царство / Aquaman And The Lost Kingdom (2023) WEB-DL 1080p | D, P 8.74 GB ↑ 0 ↓ 1
2024-02-12 magnet Аквамен и потерянное царство / Aquaman and the Lost Kingdom (2023) WEB-DLRip 1080p | D 11.06 GB ↑ 1 ↓ 1
2024-02-11 magnet Аквамен и потерянное царство / Аквамен і загублене королівство / Aquaman and the Lost Kingdom (2023) WEB-DL-HEVC 2160p | 4K | SDR | D | UKR 14.25 GB ↑ 0 ↓ 0
2024-02-06 magnet Аквамен и потерянное царство / Аквамен і загублене королівство / Aquaman and the Lost Kingdom (2023) WEB-DL-HEVC 2160p | 4K | HDR | Dolby Vision Profile 8 | D | UKR 22.23 GB ↑ 0 ↓ 1
2024-02-06 magnet Аквамен и потерянное царство / Аквамен і загублене королівство / Aquaman and the Lost Kingdom (2023) WEB-DLRip | D | UKR 1.47 GB ↑ 0 ↓ 0
2024-02-06 magnet Аквамен и потерянное царство / Аквамен і загублене королівство / Aquaman and the Lost Kingdom (2023) WEB-DL 1080p | D | UKR 8.13 GB ↑ 1 ↓ 0

Комментарии


Зарегистрируйтесь чтобы добавить комментарий
Торрент клиент
byTorrent - программа для загрузки торрент-файлов.

Скачать byTorrent.exe (1,5 МБ)

Скачать byTorrent.zip (0,6 МБ)

Поддержи torrent.by
российских рублей
(300 российских рублей это 4$)

Обратная связь rss

End game ©