↑↓torrent.by
Поиск
Логин:  Регистрация
Пароль:

Опережая выстрел [01-08 из 08] (2012) WEBRip-AVC от Generalfilm | КПК

download Скачать торрент-файл   magnet Магнитная ссылка Размер: 1.79 GB Добавлен: 2024-02-04 05:00
Пиры будут получены из сети DHT
Последний сидер был замечен сегодня в 19:44
Информация о фильме Оригинальное название: Опережая выстрел Год выхода: 2012 Жанр: Боевик, криминал, мелодрама Режиссер: Михаил Хлебородов В ролях: Алексей Янин, Екатерина Федулова, Александр Голубков, Евгений Миллер, Андрей Феськов, Олег Тактаров, Наталья Земцова, Виктория Маслова, Павел Баршак, Катерина Шпица, Денис Юшечкин, Алексей Медведев, Илья Исаев, Ричард Бондарев, Вячеслав Крикунов, Анна Кузминская, Екатерина Соломатина, Евгений Вакунов, Ксения Теплова, Антон Кузнецов, Митя Лабуш, Елизавета Пащенко, Ольга Прихудайлова, Настасья Самбурская, Дмитрий Буренков, Руслан Спояло, Олег Макаров, Владимир Яковлев (II), Ольга Смирнова, Антон Шпиньков, Юрий Лопарёв, Владимир Дубровский (II), Сергей Оганесян О фильме: Отряд милиции специального назначения или просто - СОБР. Сюда возьмут не каждого, здесь свои традиции и свои законы. Они умеют всё, они не знают слова "невозможно", и лучше не вставать на их пути. Они действуют со скоростью пули и бьют без промаха. И кому, как не им, известно, ЧТО быстрее выстрела и поражает гораздо сильнее… Нет оружия, способного опередить любовь… Страна: Россия Студия: "Дирекция Кино" по заказу Первого канала Продолжительность: 8 x ~ 00:50:00 Перевод: Не требуется Файл Формат: MP4 Качество: WEBRip-AVC Видео: MPEG-4 AVC (x264), 640x360, ~ 500 kbps, 25.000 fps Аудио: AAC LC, 48.0 KHz, 2 ch, 128 Kbps Субтитры: Нет
[+] Скриншоты
[+] MIComplete name : D:киноOperezhaya.Vystrel.S01.2012.WEBRip-AVC.KPK.GFOperezhaya.Vystrel.s01e02.2012.WEBRip-AVC.KPK.GF.mp4 Format : MPEG-4 Codec ID : M4V (isom/iso2/avc1) File size : 233 MiB Duration : 51mn 24s Overall bit rate mode : Variable Overall bit rate : 634 Kbps Writing application : Lavf53.19.0 Video ID : 1 Format : AVC Format/Info : Advanced Video Codec Format profile : High@L4.1 Format settings, CABAC : Yes Format settings, ReFrames : 8 frames Codec ID : avc1 Codec ID/Info : Advanced Video Coding Duration : 51mn 24s Bit rate : 500 Kbps Width : 640 pixels Height : 360 pixels Display aspect ratio : 16:9 Frame rate mode : Constant Frame rate : 25.000 fps Color space : YUV Chroma subsampling : 4:2:0 Bit depth : 8 bits Scan type : Progressive Bits/(Pixel*Frame) : 0.087 Stream size : 184 MiB (79%) Writing library : x264 core 146 r2538 121396c Encoding settings : cabac=1 / ref=8 / deblock=1:-1:-1 / analyse=0x3:0x133 / me=umh / subme=10 / psy=1 / psy_rd=1.00:0.00 / mixed_ref=1 / me_range=24 / chroma_me=1 / trellis=2 / 8x8dct=1 / cqm=0 / deadzone=21,11 / fast_pskip=1 / chroma_qp_offset=-2 / threads=3 / lookahead_threads=1 / sliced_threads=0 / nr=0 / decimate=1 / interlaced=0 / bluray_compat=0 / constrained_intra=0 / bframes=8 / b_pyramid=2 / b_adapt=2 / b_bias=0 / direct=3 / weightb=1 / open_gop=0 / weightp=2 / keyint=250 / keyint_min=126 / scenecut=40 / intra_refresh=0 / rc_lookahead=40 / rc=2pass / mbtree=1 / bitrate=500 / ratetol=1.0 / qcomp=0.60 / qpmin=0 / qpmax=69 / qpstep=4 / cplxblur=20.0 / qblur=0.5 / ip_ratio=1.40 / aq=1:1.00 Menus : 3 Audio ID : 2 Format : AAC Format/Info : Advanced Audio Codec Format profile : LC Codec ID : 40 Duration : 51mn 24s Bit rate mode : Variable Bit rate : 128 Kbps Channel(s) : 2 channels Channel positions : Front: L R Sampling rate : 48.0 KHz Frame rate : 46.875 fps (1024 spf) Compression mode : Lossy Stream size : 47.0 MiB (20%) Default : Yes Alternate group : 1 Menus : 3
Релиз от:

Всего файлов в раздаче: 8 
Operezhaya.Vystrel.s01e01.2012.WEBRip-AVC.KPK.GF.mp4233.64 MB
Operezhaya.Vystrel.s01e02.2012.WEBRip-AVC.KPK.GF.mp4233.05 MB
Operezhaya.Vystrel.s01e03.2012.WEBRip-AVC.KPK.GF.mp4239.90 MB
Operezhaya.Vystrel.s01e04.2012.WEBRip-AVC.KPK.GF.mp4242.92 MB
Operezhaya.Vystrel.s01e05.2012.WEBRip-AVC.KPK.GF.mp4215.46 MB
Operezhaya.Vystrel.s01e06.2012.WEBRip-AVC.KPK.GF.mp4241.81 MB
Operezhaya.Vystrel.s01e07.2012.WEBRip-AVC.KPK.GF.mp4215.66 MB
Operezhaya.Vystrel.s01e08.2012.WEBRip-AVC.KPK.GF.mp4209.17 MB

Комментарии


Зарегистрируйтесь чтобы добавить комментарий
Торрент клиент
byTorrent - программа для загрузки торрент-файлов.

Скачать byTorrent.exe (1,5 МБ)

Скачать byTorrent.zip (0,6 МБ)

Поддержи torrent.by
российских рублей
(300 российских рублей это 4$)

Обратная связь rss

End game ©