↑↓torrent.by
Поиск
Логин:  Регистрация
Пароль:

Ludovico Einaudi - Seven Days Walking: Days 1-7 [24-bit Hi-Res] (2019) FLAC

download Скачать торрент-файл   magnet Магнитная ссылка Размер: 6.04 GB Добавлен: 2024-02-04 11:00
Пиры будут получены из сети DHT
Последний сидер был замечен 2024-02-24 09:00
Название: Seven Days Walking: Days 1-7 Исполнитель: Ludovico Einaudi Год: 2019 Жанр: Modern-Classical Страна: Italy Продолжительность: 06:05:44 Формат/Кодек: FLAC Тип рипа: Tracks Битрейт аудио: Lossless Разрядность: 24 Bit/96 kHz Носитель: WEB Qobuz
[+] Трек-лист Day 1 01. Low Mist Var.1 (02:29) 02. Low Mist (05:25) 03. Gravity (05:27) 04. Matches (02:54) 05. Cold Wind Var.1 (03:59) 06. Golden Butterflies (05:53) 07. Fox Tracks (03:38) 08. A Sense of Symmetry (02:35) 09. The Path Of The Fossils (08:15) 10. Ascent (05:37) 11. Low Mist Var.2 (05:43) Day 2 01. Low Mist Var. 1 (02:44) 02. A Sense of Symmetry (02:36) 03. Ascent (06:12) 04. Golden Butterflies Var. 1 (05:57) 05. Birdsong (05:25) 06. Fox Tracks (04:31) 07. Campfire Var. 1 (06:14) 08. Matches Var. 1 (02:23) 09. The Path Of The Fossils (08:35) 10. Cold Wind Var. 1 (04:15) 11. Low Mist Var. 2 (02:45) Day 3 01. Low Mist (05:54) 02. Gravity (05:52) 03. Golden Butterflies (05:52) 04. The Path Of Fossils (08:50) 05. Campfire (04:31) 06. A Sense Of Symmetry (02:27) 07. Fox Tracks (04:17) 08. View From The Other Side (04:22) 09. Full Moon (03:38) 10. Matches (02:51) 11. Cold Wind (04:32) 12. Ascent (06:24) Day 4 01. Low Mist Var. 1 (02:29) 02. Cold Wind Var. 1 (03:28) 03. A Sense Of Symmetry (02:35) 04. Gravity Var. 1 (05:28) 05. Fox Tracks (03:39) 06. Low Mist Var. 2 (05:15) 07. Campfire (03:45) 08. Cold Wind Var. 2 (05:14) 09. Matches (02:45) 10.View From The Other Side (04:23) 11. Full Moon (03:04) 12. Ascent (05:03) Day 5 01. Ascent (05:47) 02. Golden Butterflies Var. 1 (02:52) 03. Gravity Var. 1 (06:22) 04. Matches Var. 1 (02:52) 05. View From The Other Side Var. 1 (03:04) 06. Full Moon (03:41) 07. Campfire Var. 1 (03:23) 08. Cold Wind (05:26) 09. Golden Butterflies (06:00) 10. Low Mist (04:13) 11. Low Mist Var. 1 (04:41) Day 6 01. Low Mist Var. 1 (03:09) 02. Low Mist (03:20) 03. Gravity (05:55) 04. Matches (03:12) 05. A Sense Of Symmetry (04:03) 06. Cold Wind Var. 1 (03:58) 07. Cold Wind (07:07) 08. Cold Wind Var. 2 (01:42) 09. Low Mist Var. 2 (08:07) 10. Ascent (05:58) 11. The Path Of The Fossils (09:47) Day 7 01. Campfire Var. 1 (06:05) 02. Ascent (05:25) 03. A Sense Of Symmetry (03:23) 04. Cold Wind Var. 1 (03:03) 05. Golden Butterflies Var. 1 (01:57) 06. Gravity (05:36) 07. Low Mist Var. 1 (02:12) 08. Low Mist (05:27) 09. Birdsong (04:53) 10. Cold Wind Var. 2 (02:50) 11. Low Mist Var. 2 (05:56) 12. Campfire Var. 2 (03:36)
[+] DRM foobar2000 1.1.15 / Dynamic Range Meter 1.1.1 -------------------------------------------------------------------------------- Analyzed: Ludovico Einaudi / Seven Days Walking -------------------------------------------------------------------------------- DR Peak RMS Duration Track -------------------------------------------------------------------------------- DR15 -8.52 dB -26.32 dB 2:29 01-Einaudi: Low Mist Var. 1 (Day 1) DR12 -0.54 dB -17.69 dB 5:25 02-Einaudi: Low Mist (Day 1) DR10 -0.50 dB -15.09 dB 5:28 03-Einaudi: Gravity (Day 1) DR14 -2.68 dB -24.30 dB 2:54 04-Einaudi: Matches (Day 1) DR13 -3.79 dB -22.01 dB 4:00 05-Einaudi: Cold Wind Var. 1 (Day 1) DR11 -0.50 dB -16.55 dB 5:53 06-Einaudi: Golden Butterflies (Day 1) DR12 -0.50 dB -18.20 dB 3:38 07-Einaudi: Fox Tracks (Day 1) DR13 -2.17 dB -20.18 dB 2:35 08-Einaudi: A Sense of Symmetry (Day 1) DR8 -0.50 dB -14.56 dB 8:16 09-Einaudi: The Path Of The Fossils (Day 1) DR12 -0.66 dB -18.40 dB 5:37 10-Einaudi: Ascent (Day 1) DR11 -0.50 dB -15.57 dB 5:43 11-Einaudi: Low Mist Var. 2 (Day 1) DR14 -7.10 dB -26.55 dB 2:45 12-Einaudi: Low Mist Var. 1 (Day 2) DR13 -5.64 dB -22.29 dB 2:37 13-Einaudi: A Sense of Symmetry (Day 2) DR12 -0.50 dB -17.04 dB 6:13 14-Einaudi: Ascent (Day 2) DR8 -0.50 dB -14.64 dB 5:57 15-Einaudi: Golden Butterflies Var. 1 (Day 2) DR12 -0.50 dB -17.31 dB 5:25 16-Einaudi: Birdsong (Day 2) DR11 -0.50 dB -15.93 dB 4:32 17-Einaudi: Fox Tracks (Day 2) DR10 -0.50 dB -14.98 dB 6:14 18-Einaudi: Campfire Var. 1 (Day 2) DR11 -3.29 dB -17.46 dB 2:24 19-Einaudi: Matches Var. 1 (Day 2) DR7 -0.50 dB -12.02 dB 8:36 20-Einaudi: The Path Of The Fossils (Day 2) DR12 -4.36 dB -20.62 dB 4:16 21-Einaudi: Cold Wind Var. 1 (Day 2) DR14 -7.22 dB -27.22 dB 2:45 22-Einaudi: Low Mist Var. 2 (Day 2) DR13 -0.41 dB -19.51 dB 5:55 23-Einaudi: Low Mist (Day 3) DR11 -2.96 dB -18.95 dB 5:53 24-Einaudi: Gravity (Day 3) DR12 -4.53 dB -21.20 dB 5:53 25-Einaudi: Golden Butterflies (Day 3) DR10 -0.40 dB -16.43 dB 8:51 26-Einaudi: The Path Of Fossils (Day 3) DR13 -4.78 dB -22.66 dB 4:31 27-Einaudi: Campfire (Day 3) DR12 -3.93 dB -21.92 dB 2:27 28-Einaudi: A Sense Of Symmetry (Day 3) DR13 -3.22 dB -21.19 dB 4:18 29-Einaudi: Fox Tracks (Day 3) DR12 -0.40 dB -19.81 dB 4:23 30-Einaudi: View From The Other Side (Day 3) DR12 -12.06 dB -28.10 dB 3:39 31-Einaudi: Full Moon (Day 3) DR13 -8.45 dB -28.18 dB 2:52 32-Einaudi: Matches (Day 3) DR11 -0.40 dB -16.51 dB 4:33 33-Einaudi: Cold Wind (Day 3) DR12 -3.36 dB -21.79 dB 6:24 34-Einaudi: Ascent (Day 3) DR14 -10.36 dB -28.40 dB 2:30 35-Einaudi: Low Mist Var. 1 (Day 4) DR13 -9.06 dB -26.33 dB 3:28 36-Einaudi: Cold Wind Var. 1 (Day 4) DR12 -4.79 dB -20.71 dB 2:36 37-Einaudi: A Sense Of Symmetry (Day 4) DR14 -3.77 dB -23.49 dB 5:29 38-Einaudi: Gravity Var. 1 (Day 4) DR13 -1.11 dB -19.77 dB 3:39 39-Einaudi: Fox Tracks (Day 4) DR13 -3.67 dB -22.47 dB 5:16 40-Einaudi: Low Mist Var. 2 (Day 4) DR12 -3.00 dB -20.50 dB 3:46 41-Einaudi: Campfire (Day 4) DR10 -0.50 dB -15.52 dB 5:15 42-Einaudi: Cold Wind Var. 2 (Day 4) DR15 -11.12 dB -31.15 dB 2:45 43-Einaudi: Matches (Day 4) DR12 -1.71 dB -19.33 dB 4:24 44-Einaudi: View From The Other Side (Day 4) DR13 -5.38 dB -24.54 dB 3:04 45-Einaudi: Full Moon (Day 4) DR12 -0.50 dB -17.52 dB 5:03 46-Einaudi: Ascent (Day 4) DR10 -0.50 dB -14.69 dB 5:48 47-Einaudi: Ascent (Day 5) DR11 -0.50 dB -17.67 dB 2:53 48-Einaudi: Golden Butterflies Var. 1 (Day 5) DR8 -0.50 dB -13.09 dB 6:23 49-Einaudi: Gravity Var. 1 (Day 5) DR13 -3.81 dB -25.43 dB 2:52 50-Einaudi: Matches Var. 1 (Day 5) DR9 -0.50 dB -14.31 dB 3:04 51-Einaudi: View From The Other Side Var. 1 (Day 5) DR13 -4.87 dB -23.22 dB 3:42 52-Einaudi: Full Moon (Day 5) DR13 -1.64 dB -19.40 dB 3:23 53-Einaudi: Campfire Var. 1 (Day 5) DR7 -0.50 dB -12.12 dB 5:26 54-Einaudi: Cold Wind (Day 5) DR10 -0.49 dB -14.45 dB 6:01 55-Einaudi: Golden Butterflies (Day 5) DR9 -0.50 dB -14.36 dB 4:14 56-Einaudi: Low Mist (Day 5) DR11 -0.50 dB -16.63 dB 4:42 57-Einaudi: Low Mist Var. 1 (Day 5) DR12 -10.54 dB -26.74 dB 3:09 58-Einaudi: Low Mist Var. 1 (Day 6) DR11 -0.73 dB -16.09 dB 3:20 59-Einaudi: Low Mist (Day 6) DR11 -0.60 dB -16.80 dB 5:55 60-Einaudi: Gravity (Day 6) DR13 -6.55 dB -25.58 dB 3:12 61-Einaudi: Matches (Day 6) DR12 -3.86 dB -21.60 dB 4:03 62-Einaudi: A Sense Of Symmetry (Day 6) DR15 -4.48 dB -25.07 dB 3:58 63-Einaudi: Cold Wind Var. 1 (Day 6) DR9 -0.60 dB -14.68 dB 7:07 64-Einaudi: Cold Wind (Day 6) DR14 -5.16 dB -25.02 dB 1:42 65-Einaudi: Cold Wind Var. 2 (Day 6) DR11 -0.60 dB -16.92 dB 8:07 66-Einaudi: Low Mist Var. 2 (Day 6) DR11 -0.60 dB -18.78 dB 5:58 67-Einaudi: Ascent (Day 6) DR9 -0.60 dB -14.49 dB 9:47 68-Einaudi: The Path Of The Fossils (Day 6) DR14 -0.40 dB -19.24 dB 6:05 69-Einaudi: Campfire Var. 1 (Day 7) DR12 -0.40 dB -17.56 dB 5:25 70-Einaudi: Ascent (Day 7) DR14 -0.40 dB -18.98 dB 3:23 71-Einaudi: A Sense Of Symmetry (Day 7) DR14 -0.40 dB -20.29 dB 3:03 72-Einaudi: Cold Wind Var. 1 (Day 7) DR12 -1.24 dB -18.35 dB 1:57 73-Einaudi: Golden Butterflies Var. 1 (Day 7) DR12 -1.34 dB -17.64 dB 5:36 74-Einaudi: Gravity (Day 7) DR15 -4.18 dB -25.88 dB 2:12 75-Einaudi: Low Mist Var. 1 (Day 7) DR13 -0.40 dB -18.85 dB 5:27 76-Einaudi: Low Mist (Day 7) DR12 -0.40 dB -15.65 dB 4:53 77-Einaudi: Birdsong (Day 7) DR14 -0.94 dB -20.62 dB 2:50 78-Einaudi: Cold Wind Var. 2 (Day 7) DR11 -0.40 dB -14.44 dB 5:56 79-Einaudi: Low Mist Var. 2 (Day 7) DR14 -0.40 dB -20.00 dB 3:36 80-Einaudi: Campfire Var. 2 (Day 7) -------------------------------------------------------------------------------- Number of tracks: 80 Official DR value: DR12 Samplerate: 96000 Hz Channels: 2 Bits per sample: 24 Bitrate: 2676 kbps Codec: FLAC ================================================================================

Всего файлов в раздаче: 84 
01 - Einaudi- Low Mist Var. 1 (Day 1).flac36.35 MB
02 - Einaudi- Low Mist (Day 1).flac77.33 MB
03 - Einaudi- Gravity (Day 1).flac80.18 MB
04 - Einaudi- Matches (Day 1).flac40.95 MB
05 - Einaudi- Cold Wind Var. 1 (Day 1).flac59.36 MB
06 - Einaudi- Golden Butterflies (Day 1).flac86.02 MB
07 - Einaudi- Fox Tracks (Day 1).flac53.24 MB
08 - Einaudi- A Sense of Symmetry (Day 1).flac37.56 MB
09 - Einaudi- The Path Of The Fossils (Day 1).flac121.32 MB
10 - Einaudi- Ascent (Day 1).flac80.67 MB
Показать все файлы

Похожие раздачи по запросу - Ludovico
2024-02-04 magnet Ludovico Einaudi - In A Time Lapse [24-bit Hi-Res, Deluxe Edition] (2013/2023) FLAC 2.00 GB ↑ 0 ↓ 0

Комментарии


Зарегистрируйтесь чтобы добавить комментарий
Торрент клиент
byTorrent - программа для загрузки торрент-файлов.

Скачать byTorrent.exe (1,5 МБ)

Скачать byTorrent.zip (0,6 МБ)

Поддержи torrent.by
российских рублей
(300 российских рублей это 4$)

Обратная связь rss

End game ©