↑↓torrent.by
Поиск
Логин:  Регистрация
Пароль:

Ocean Jet - Mind Rivers [24Bit, Hi-Res] (2024) FLAC

download Скачать торрент-файл   magnet Магнитная ссылка Размер: 706.47 MB Добавлен: 2024-02-04 11:00
Пиры будут получены из сети DHT
Последний сидер был замечен 2024-02-05 17:14
Ocean Jet - Mind Rivers (2024) Жанр: Electronic-Rock, Indie Rock, Synthpop Источник: qobuz Продолжительность: 00:33:11 Кодек: FLAC 24/96 Битрейт: Lossless|WEB-DL Тип рипа: tracks Треклист: 01. Flock 02. Stride 03. Mind Rivers 04. Not Anymore 05. Moonlight 06. Neon 07. Truth 08. Liar 09. Paralyzed 10. Dissolve Me
[+] Дополнительная информация: Россия Скакун Максим, Скакун Олеся & Чистов Иван https://www.facebook.com/oceanjetband https://oceanjet.bandcamp.com/music
[+] Отчёт EAC: foobar2000 2.0 / Замер динамического диапазона (DR) 1.1.1 Дата отчёта: 2024-02-03 21:02:16 -------------------------------------------------------------------------------- Анализ: Ocean Jet / Mind Rivers -------------------------------------------------------------------------------- DR Пики RMS Продолжительность трека -------------------------------------------------------------------------------- DR5 -0.21 дБ -6.66 дБ 3:17 01-Flock DR5 -0.20 дБ -6.57 дБ 3:15 02-Stride DR6 -0.21 дБ -7.21 дБ 3:09 03-Mind Rivers DR6 -0.21 дБ -7.08 дБ 3:14 04-Not Anymore DR6 -0.20 дБ -6.89 дБ 3:36 05-Moonlight DR6 -0.21 дБ -7.26 дБ 3:07 06-Neon DR6 -0.21 дБ -7.59 дБ 3:35 07-Truth DR6 -0.21 дБ -7.32 дБ 3:14 08-Liar DR5 -0.21 дБ -6.39 дБ 3:41 09-Paralyzed DR6 -0.21 дБ -6.92 дБ 3:05 10-Dissolve Me -------------------------------------------------------------------------------- Количество треков: 10 Реальные значения DR: DR6 Частота: 96000 Гц Каналов: 2 Разрядность: 24 Битрейт: 2979 кбит/с Кодек: FLAC ================================================================================
https://youtu.be/_hvKEfl6RJA

Всего файлов в раздаче: 11 
01 - Flock.flac68.81 MB
02 - Stride.flac71.14 MB
03 - Mind Rivers.flac66.26 MB
04 - Not Anymore.flac70.63 MB
05 - Moonlight.flac75.74 MB
06 - Neon.flac64.83 MB
07 - Truth.flac77.27 MB
08 - Liar.flac69.40 MB
09 - Paralyzed.flac76.30 MB
10 - Dissolve Me.flac65.79 MB
Показать все файлы

Похожие раздачи по запросу - Ocean
Вчера magnet Волшебный город 4: Гнев океана / Magic City Detective 4: Wrath of the Ocean CE (2024) PC 861.46 MB ↑ 0 ↓ 0
Вчера magnet Тайные сокровища Тихого океана / Pacific Ocean [01-08 из 08] (2016) HDTV 1080i | P1 14.08 GB ↑ 0 ↓ 1
2024-02-04 magnet Being As An Ocean - Death Can Wait (2024) MP3 101.50 MB ↑ 0 ↓ 0
2023-12-27 magnet Что скрывает океан / Ocean Deep (2023) WEB-DLRip от New-Team | D | Локализованная версия 1.47 GB ↑ 0 ↓ 0
2023-12-27 magnet 8 подруг Оушена / Ocean's Eight (2018) HDRip-AVC от ExKinoRay | D 744.14 MB ↑ 0 ↓ 0
2023-07-12 magnet VA - Melodies of the Ocean: Chillout Your Mind (2023) FLAC 377.02 MB ↑ 0 ↓ 0
2023-05-02 magnet 12 друзей Оушена / Ocean's Twelve (2004) WEB-DL-HEVC 2160p | 4K | HDR | Dolby Vision Profile 8 | D, P2, A 19.33 GB ↑ 0 ↓ 0

Комментарии


Зарегистрируйтесь чтобы добавить комментарий
Торрент клиент
byTorrent - программа для загрузки торрент-файлов.

Скачать byTorrent.exe (1,5 МБ)

Скачать byTorrent.zip (0,6 МБ)

Поддержи torrent.by
российских рублей
(300 российских рублей это 4$)

Обратная связь rss

End game ©