↑↓torrent.by
Поиск
Логин:  Регистрация
Пароль:

С юбилеем подождём (1985) WEB-DL 1080p

download Скачать торрент-файл   magnet Магнитная ссылка Размер: 3.42 GB Добавлен: 2024-02-04 17:00
Пиры будут получены из сети DHT
Последний сидер был замечен 2024-02-04 17:00
Информация о фильме Название: С юбилеем подождём Год выхода: 1985 Жанр: драма Режиссер: Борис Горошко В ролях: Кирилл Лавров, Леонид Неведомский, Борис Новиков, Любовь Виролайнен, Александр Денисов, Людмила Писарева, Татьяна Чекатовская, Евгений Шутов, Владимир Талашко, Владимир Носик, Игорь Васильев О фильме: Виктор Никитич Ткачук, энергичный и предприимчивый председатель колхоза «Новый быт», вывел отсталое хозяйство в передовые. И теперь, несмотря на полную разруху в соседних хозяйствах, решил отстроить для колхозников санаторий... Страна: СССР Студия: Беларусьфильм Продолжительность: 01:27:21 Перевод: Не требуется Файл Качество: WEB-DL 1080p Формат: MKV Видео: AVC/H.264, 1920x788, ~5400 Kbps Аудио: AAC, 2 ch, 192 Kbps - Русский Субтитры: нет Релиз от: karfagen1975
[+] M/IGeneral Unique ID : 200563401938139631605688499724525067496 (0x96E31B2CE9FD703E56706FC112F95CE8) Complete name : S.yubileem.podozhdem1985.WEB-DL.1080p.mkv Format : Matroska Format version : Version 4 File size : 3.42 GiB Duration : 1 h 27 min Overall bit rate : 5 603 kb/s Frame rate : 25.000 FPS Encoded date : 2024-02-04 04:30:19 UTC Writing application : mkvmerge v75.0.0 ('Goliath') 64-bit Writing library : libebml v1.4.4 + libmatroska v1.7.1 Video ID : 1 Format : AVC Format/Info : Advanced Video Codec Format profile : Progressive High@L4 Format settings : CABAC / 5 Ref Frames Format settings, CABAC : Yes Format settings, Reference frames : 5 frames Codec ID : V_MPEG4/ISO/AVC Duration : 1 h 27 min Bit rate : 5 407 kb/s Nominal bit rate : 6 000 kb/s Width : 1 920 pixels Height : 788 pixels Display aspect ratio : 2.40:1 Frame rate mode : Constant Frame rate : 25.000 FPS Color space : YUV Chroma subsampling : 4:2:0 Bit depth : 8 bits Scan type : Progressive Bits/(Pixel*Frame) : 0.143 Stream size : 3.30 GiB (97%) Title : С юбилеем подождем (1985) WEB-DL 1080p Writing library : x264 core 157 Encoding settings : cabac=1 / ref=5 / deblock=1:0:0 / analyse=0x3:0x133 / me=umh / subme=10 / psy=1 / psy_rd=1.00:0.00 / mixed_ref=1 / me_range=24 / chroma_me=1 / trellis=2 / 8x8dct=1 / cqm=0 / deadzone=21,11 / fast_pskip=1 / chroma_qp_offset=-2 / threads=25 / lookahead_threads=4 / sliced_threads=0 / nr=0 / decimate=1 / interlaced=0 / bluray_compat=0 / stitchable=1 / constrained_intra=0 / bframes=8 / b_pyramid=2 / b_adapt=2 / b_bias=0 / direct=3 / weightb=1 / open_gop=0 / weightp=2 / keyint=250 / keyint_min=25 / scenecut=40 / intra_refresh=0 / rc_lookahead=60 / rc=abr / mbtree=1 / bitrate=6000 / ratetol=1.0 / qcomp=0.60 / qpmin=0 / qpmax=69 / qpstep=4 / vbv_maxrate=6600 / vbv_bufsize=24000 / nal_hrd=none / filler=0 / ip_ratio=1.40 / aq=1:1.00 Language : Russian Default : Yes Forced : No Audio ID : 2 Format : AAC LC Format/Info : Advanced Audio Codec Low Complexity Codec ID : A_AAC-2 Duration : 1 h 27 min Bit rate : 192 kb/s Channel(s) : 2 channels Channel layout : L R Sampling rate : 48.0 kHz Frame rate : 46.875 FPS (1024 SPF) Compression mode : Lossy Stream size : 120 MiB (3%) Title : Original Language : Russian Default : Yes Forced : No
[+] Скриншоты

Всего файлов в раздаче: 1 
S.yubileem.podozhdem1985.WEB-DL.1080p.mkv3.42 GB

Комментарии


Зарегистрируйтесь чтобы добавить комментарий
Торрент клиент
byTorrent - программа для загрузки торрент-файлов.

Скачать byTorrent.exe (1,5 МБ)

Скачать byTorrent.zip (0,6 МБ)

Поддержи torrent.by
российских рублей
(300 российских рублей это 4$)

Обратная связь rss

End game ©