↑↓torrent.by
Поиск
Логин:  Регистрация
Пароль:

Грисельда / Griselda [S01] (2024) WEB-DL 1080p от Jaskier | P | Jaskier

download Скачать торрент-файл   magnet Магнитная ссылка Размер: 19.41 GB Добавлен: 2024-02-04 17:00
Пиры будут получены из сети DHT
Последний сидер был замечен 2024-02-08 19:27
Информация о фильме Название: Грисельда Оригинальное название: Griselda Год выхода: 2024 Жанр: криминал, биография, драма Режиссер: Андрес Байс В ролях: София Вергара, Альберто Герра, Мартин Родригес, Орландо Пинеда, Мартин Фахардо, Ванесса Ферлито, Фреди Йэт О фильме: История колумбийской наркобаронессы Грисельды Бланко, которой удалось создать один из самых прибыльных картелей в истории. Страна: США Студия: Grand Electric, Latin World Entertainment (LWE) Продолжительность: ~ 00:52:00 Перевод: Профессиональный (многоголосый закадровый) Jaskier Файл Кодек: MKV Качество: WEB-DL 1080p Видео: AVC, 1920x1080 (16:9), 23.976 fps, ~ 6 847 kbps Звук: Аудио 1: Русский, AC-3, 48 kHz, 6 ch, 384 kbps | Jaskier Аудио 2: Английский, E-AC3 JOC, 48 kHz, 6 ch, 768 kbps Субтитры: Русские, Английские (Forced, SDH) Семпл
[+] Список серий 1. Сеньора на новом месте / Lady Comes to Town 2. Богатые белые люди / Rich White People 3. Мятеж / Mutiny 4. Менеджер среднего звена / Middle Management 5. Потерянный рай / Paradise Lost 6. Адьос, Майами / Adios, Miami
[+] MediaInfo General Unique ID : 250343128106625487385099325051452467307 (0xBC56552A76FF8CCAA095E5B909E3286B) Complete name : E:TorrentGriselda.S01.1080p.WEB.H264-JaskierGriselda.S01E01.1080p.WEB.H264-Jaskier.mkv Format : Matroska Format version : Version 4 File size : 2.96 GiB Duration : 51 min 55 s Overall bit rate mode : Variable Overall bit rate : 8 161 kb/s Encoded date : UTC 2024-02-03 21:41:18 Writing application : mkvmerge v6.6.0 ('The Edge Of The In Between') built on Dec 1 2013 17:55:00 Writing library : libebml v1.3.0 + libmatroska v1.4.1 Video ID : 1 Format : AVC Format/Info : Advanced Video Codec Format profile : High@L4 Format settings : CABAC / 4 Ref Frames Format settings, CABAC : Yes Format settings, Reference frames : 4 frames Codec ID : V_MPEG4/ISO/AVC Duration : 51 min 55 s Bit rate mode : Variable Bit rate : 6 847 kb/s Maximum bit rate : 20.0 Mb/s Width : 1 920 pixels Height : 1 080 pixels Display aspect ratio : 16:9 Frame rate mode : Constant Frame rate : 23.976 (24000/1001) FPS Original frame rate : 47.952 (48000/1001) FPS Color space : YUV Chroma subsampling : 4:2:0 Bit depth : 8 bits Scan type : Progressive Bits/(Pixel*Frame) : 0.138 Stream size : 2.48 GiB (84%) Writing library : x264 core 148 r2727 7d026e8 Encoding settings : cabac=1 / ref=4 / deblock=1:0:0 / analyse=0x3:0x111 / me=umh / subme=10 / psy=1 / psy_rd=1.00:0.00 / mixed_ref=1 / me_range=120 / chroma_me=1 / trellis=2 / 8x8dct=1 / cqm=0 / deadzone=21,11 / fast_pskip=1 / chroma_qp_offset=-2 / threads=6 / lookahead_threads=1 / sliced_threads=0 / nr=0 / decimate=1 / interlaced=0 / bluray_compat=0 / stitchable=1 / constrained_intra=0 / bframes=16 / b_pyramid=2 / b_adapt=2 / b_bias=0 / direct=3 / weightb=1 / open_gop=0 / weightp=2 / keyint=240 / keyint_min=121 / scenecut=0 / intra_refresh=0 / rc_lookahead=240 / rc=crf / mbtree=1 / crf=16.0 / qcomp=0.50 / qpmin=6 / qpmax=51 / qpstep=4 / vbv_maxrate=20000 / vbv_bufsize=25000 / crf_max=0.0 / nal_hrd=vbr / filler=0 / ip_ratio=1.40 / aq=1:0.80 Default : Yes Forced : No Audio #1 ID : 2 Format : AC-3 Format/Info : Audio Coding 3 Commercial name : Dolby Digital Codec ID : A_AC3 Duration : 51 min 55 s Bit rate mode : Constant Bit rate : 384 kb/s Channel(s) : 6 channels Channel layout : L R C LFE Ls Rs Sampling rate : 48.0 kHz Frame rate : 31.250 FPS (1536 SPF) Compression mode : Lossy Stream size : 143 MiB (5%) Title : Jaskier Language : Russian Service kind : Complete Main Default : Yes Forced : Yes Audio #2 ID : 3 Format : E-AC-3 JOC Format/Info : Enhanced AC-3 with Joint Object Coding Commercial name : Dolby Digital Plus with Dolby Atmos Codec ID : A_EAC3 Duration : 51 min 55 s Bit rate mode : Constant Bit rate : 768 kb/s Channel(s) : 6 channels Channel layout : L R C LFE Ls Rs Sampling rate : 48.0 kHz Frame rate : 31.250 FPS (1536 SPF) Compression mode : Lossy Stream size : 285 MiB (9%) Title : Original Language : English Service kind : Complete Main Default : No Forced : No Complexity index : 16 Number of dynamic objects : 15 Bed channel count : 1 channel Bed channel configuration : LFE Text #1 ID : 4 Format : UTF-8 Codec ID : S_TEXT/UTF8 Codec ID/Info : UTF-8 Plain Text Title : Russian Language : Russian Default : No Forced : No Text #2 ID : 5 Format : UTF-8 Codec ID : S_TEXT/UTF8 Codec ID/Info : UTF-8 Plain Text Title : English Language : English Default : No Forced : No Text #3 ID : 6 Format : UTF-8 Codec ID : S_TEXT/UTF8 Codec ID/Info : UTF-8 Plain Text Title : English Language : English Default : No Forced : No
[+] Скриншоты
Релиз от: Jaskier

Всего файлов в раздаче: 6 
Griselda.S01E01.1080p.WEB.H264-Jaskier.mkv2.96 GB
Griselda.S01E02.1080p.WEB.H264-Jaskier.mkv3.26 GB
Griselda.S01E03.1080p.WEB.H264-Jaskier.mkv3.40 GB
Griselda.S01E04.1080p.WEB.H264-Jaskier.mkv3.50 GB
Griselda.S01E05.1080p.WEB.H264-Jaskier.mkv3.32 GB
Griselda.S01E06.1080p.WEB.H264-Jaskier.mkv2.97 GB

Похожие раздачи по запросу - Грисельда
2024-02-05 magnet Грисельда / Griselda [S01] (2024) WEB-DL 1080p | P | Red Head Sound 18.97 GB ↑ 0 ↓ 0
2024-01-29 magnet Грисельда / Griselda [S01] (2024) WEB-DLRip-AVC от DoMiNo & селезень | P | HDRezka Studio 4.79 GB ↑ 0 ↓ 0
2024-01-29 magnet Грисельда / Griselda [S01] (2024) WEB-DL 1080p | HDRezka Studio, ColdFilm 21.20 GB ↑ 0 ↓ 0
2024-01-28 magnet Грисельда / Griselda [S01] (2024) WEB-DL 720p | HDrezka Studio 9.21 GB ↑ 0 ↓ 0
2024-01-27 magnet Грисельда / Griselda [01x01 из 6] (2024) WEB-DLRip-AVC от DoMiNo & селезень | P | HDRezka Studio 736.02 MB ↑ 0 ↓ 0
2024-01-26 magnet Грисельда / Griselda [01x01 из 6] (2024) WEB-DL 1080p | P, L | HDRezka Studio, ColdFilm 3.24 GB ↑ 0 ↓ 0
2024-01-26 magnet Грисельда / Griselda [S01] (2023) WEBRip от Kerob | L2 3.59 GB ↑ 0 ↓ 0

Комментарии


Зарегистрируйтесь чтобы добавить комментарий
Торрент клиент
byTorrent - программа для загрузки торрент-файлов.

Скачать byTorrent.exe (1,5 МБ)

Скачать byTorrent.zip (0,6 МБ)

Поддержи torrent.by
российских рублей
(300 российских рублей это 4$)

Обратная связь rss

End game ©