↑↓torrent.by
Поиск
Логин:  Регистрация
Пароль:

Астрал 5: Красная дверь / Insidious: The Red Door (2023) HDRip-AVC от DoMiNo & селезень | D | Bravo Records Georgia / Movie Dubbing

download Скачать торрент-файл   magnet Магнитная ссылка Размер: 1.46 GB Добавлен: 2024-02-04 17:00
Пиры будут получены из сети DHT
Последний сидер был замечен 2024-02-04 20:24
Информация о фильме Название: Астрал 5: Красная дверь Оригинальное название: Insidious: The Red Door Год выпуска: 2023 Жанр: Ужасы Режиссер: Патрик Уилсон / Patrick Wilson В ролях: Тай Симпкинс, Патрик Уилсон, Роуз Бирн, Синклер Дэниел, Хиам Аббасс, Эндрю Эстор, Джулиана Дэвис, Стив Коултер, Питер Даггер, Джастин Стерджис О фильме: Чтобы покончить со своими демонами раз и навсегда, Джош и его сын Далтон, уже поступивший в колледж, должны погрузиться в астрал глубже, чем когда-либо. Героям предстоит столкнуться с темным семейным прошлым и множеством новых кошмаров, которые ждут их за красной дверью. «Астрал 5: Красная дверь» — финал истории о несчастной семье Ламбертов, которых не оставляет паранормальное, режиссерский дебют Патрика Уилсона. Страна: США, Канада Студия: Alliance, Blumhouse Productions, Screen Gems Продолжительность: 01:47:09 Перевод: Дублированный | Bravo Records Georgia / Movie Dubbing Субтитры: Русские (Forced, 2 x full), английские Файл Формат: Matroska Качество: HDRip-AVC Видео: 1024x428 at 23.976 fps, x264@L4.1, ~1569 kbps Аудио: AC3, 6 ch, ~384 kbps - | Русский | | Дублированный Формат субтитров: softsub (SRT) ***Рип от: -=DoMiNo=-
[+] M/Ix264 : frame I:1330 Avg QP:10.49 size: 47375 x264 : frame P:34619 Avg QP:12.01 size: 18616 x264 : frame B:118179 Avg QP:13.74 size: 4680 General Unique ID : 252607776413599076865635479193250236788 (0xBE0A7CF2AE1324096C93998A47390974) Complete name : I:Insidious.The.Red.Door.2023.DUB.x264.seleZen.mkv Format : Matroska Format version : Version 4 File size : 1.46 GiB Duration : 1 h 47 min Overall bit rate : 1 955 kb/s Frame rate : 23.976 FPS Movie name : Insidious.The.Red.Door.2023.DUB.x264.seleZen Encoded date : 2023-09-22 07:18:03 UTC Writing application : mkvmerge v79.0 ('Funeral Pyres') 64-bit Writing library : libebml v1.4.4 + libmatroska v1.7.1 Cover : Yes Attachments : cover.jpg / small_cover.jpg Video ID : 1 Format : AVC Format/Info : Advanced Video Codec Format profile : High@L4.1 Format settings : CABAC / 12 Ref Frames Format settings, CABAC : Yes Format settings, Reference : 12 frames Codec ID : V_MPEG4/ISO/AVC Duration : 1 h 47 min Bit rate : 1 569 kb/s Width : 1 024 pixels Height : 428 pixels Display aspect ratio : 2.40:1 Frame rate mode : Constant Frame rate : 23.976 (24000/1001) FPS Color space : YUV Chroma subsampling : 4:2:0 Bit depth : 8 bits Scan type : Progressive Bits/(Pixel*Frame) : 0.149 Stream size : 1.17 GiB (80%) Title : -=DoMiNo=- Writing library : x264 core 164 r3107+58M ae98796 t_mod_New | by -=DoMiNo=- | X86_64] Encoding settings : cabac=1 / ref=12 / deblock=1:-2:-2 / analyse=0x3:0x133 / me=umh / subme=10 / psy=1 / fade_compensate=0.00 / psy_rd=1.03:0.05 / mixed_ref=1 / me_range=48 / chroma_me=1 / trellis=2 / 8x8dct=1 / cqm=0 / deadzone=21,11 / fast_pskip=0 / chroma_qp_offset=-3 / threads=17 / lookahead_threads=3 / sliced_threads=0 / nr=0 / decimate=0 / interlaced=0 / bluray_compat=0 / constrained_intra=0 / fgo=0 / bframes=10 / b_pyramid=2 / b_adapt=2 / b_bias=0 / direct=3 / weightb=1 / open_gop=0 / weightp=2 / keyint=240 / keyint_min=24 / scenecut=40 / intra_refresh=0 / rc_lookahead=60 / rc=2pass / mbtree=0 / bitrate=1569 / ratetol=1.0 / qcomp=0.70 / qpmin=0:0:0 / qpmax=69:69:69 / qpstep=4 / cplxblur=20.0 / qblur=0.5 / vbv_maxrate=50000 / vbv_bufsize=62500 / nal_hrd=none / filler=0 / ip_ratio=1.20 / pb_ratio=1.30 / aq=1:0.90 / aq-sensitivity=10.00 / aq-factor=1.00:1.00:1.00 / aq2=0 / aq3=0 Language : English Default : Yes Forced : No Audio ID : 2 Format : AC-3 Format/Info : Audio Coding 3 Commercial name : Dolby Digital Codec ID : A_AC3 Duration : 1 h 47 min Bit rate mode : Constant Bit rate : 384 kb/s Channel(s) : 6 channels Channel layout : L R C LFE Ls Rs Sampling rate : 48.0 kHz Frame rate : 31.250 FPS (1536 SPF) Compression mode : Lossy Stream size : 294 MiB (20%) Title : Dub Language : Russian Service kind : Complete Main Default : Yes Forced : No Text #1 ID : 3 Format : UTF-8 Codec ID : S_TEXT/UTF8 Codec ID/Info : UTF-8 Plain Text Duration : 1 h 23 min Bit rate : 2 b/s Frame rate : 0.007 FPS Count of elements : 37 Stream size : 1.69 KiB (0%) Title : Forced Language : Russian Default : No Forced : No Text #2 ID : 4 Format : UTF-8 Codec ID : S_TEXT/UTF8 Codec ID/Info : UTF-8 Plain Text Duration : 1 h 45 min Bit rate : 49 b/s Frame rate : 0.159 FPS Count of elements : 1011 Stream size : 38.2 KiB (0%) Title : Full Language : Russian Default : No Forced : No Text #3 ID : 5 Format : UTF-8 Codec ID : S_TEXT/UTF8 Codec ID/Info : UTF-8 Plain Text Duration : 1 h 41 min Bit rate : 62 b/s Frame rate : 0.171 FPS Count of elements : 1040 Stream size : 46.4 KiB (0%) Title : Full v.2 Language : Russian Default : No Forced : No Text #4 ID : 6 Format : UTF-8 Codec ID : S_TEXT/UTF8 Codec ID/Info : UTF-8 Plain Text Duration : 1 h 45 min Bit rate : 38 b/s Frame rate : 0.161 FPS Count of elements : 1019 Stream size : 29.7 KiB (0%) Title : Full Language : English Default : No Forced : No Text #5 ID : 7 Format : UTF-8 Codec ID : S_TEXT/UTF8 Codec ID/Info : UTF-8 Plain Text Duration : 1 h 46 min Bit rate : 44 b/s Frame rate : 0.187 FPS Count of elements : 1195 Stream size : 34.4 KiB (0%) Title : SDH Language : English Default : No Forced : No Menu 00:00:00.000 : en:Chapter 01 00:06:44.988 : en:Chapter 02 00:12:32.752 : en:Chapter 03 00:17:50.945 : en:Chapter 04 00:22:46.865 : en:Chapter 05 00:32:44.337 : en:Chapter 06 00:45:46.786 : en:Chapter 07 00:52:40.783 : en:Chapter 08 01:00:19.366 : en:Chapter 09 01:10:46.492 : en:Chapter 10 01:15:23.144 : en:Chapter 11 01:20:08.762 : en:Chapter 12 01:25:18.155 : en:Chapter 13 01:28:24.299 : en:Chapter 14 01:33:09.250 : en:Chapter 15 01:39:18.870 : en:Chapter 16
Релиз: Присоединяйся к: Кликай на баннеры.

Всего файлов в раздаче: 1 
Insidious.The.Red.Door.2023.DUB.x264.seleZen.mkv1.46 GB

Похожие раздачи по запросу - Астрал
2024-01-09 magnet Астрал. Сомния / The Harbinger (2022) BDRip от MegaPeer | D 1К1.46 GB ↑ 0 ↓ 0
2023-12-09 magnet Астрал. Ритуал Малум / Malum (2023) WEB-DL 1080p от New-Team | P2 | ViruseProject 2К5.22 GB ↑ 0 ↓ 0
2023-12-09 magnet Астрал. Ритуал Малум / Malum (2023) WEB-DLRip 720p от ExKinoRay | ViruseProject 2.18 GB ↑ 0 ↓ 0
2023-09-22 magnet Астрал 5: Красная дверь / Insidious: The Red Door (2023) BDRip 720p от селезень | D 3.61 GB ↑ 0 ↓ 0
2023-09-05 magnet Астрал 5: Красная дверь / Insidious: The Red Door (2023) WEB-DL 1080p от селезень | D, P 7.65 GB ↑ 0 ↓ 0
2023-05-03 magnet Астрал. Женщина в черном / From Black (2023) WEB-DL 720p от селезень | P | Jaskier 1.54 GB ↑ 0 ↓ 0

Комментарии


Зарегистрируйтесь чтобы добавить комментарий
Торрент клиент
byTorrent - программа для загрузки торрент-файлов.

Скачать byTorrent.exe (1,5 МБ)

Скачать byTorrent.zip (0,6 МБ)

Поддержи torrent.by
российских рублей
(300 российских рублей это 4$)

Обратная связь rss

End game ©