↑↓torrent.by
Поиск
Логин:  Регистрация
Пароль:

Дом тьмы / House of Darkness (2022) BDRip 1080p от MegaPeer | D, L2

download Скачать торрент-файл   magnet Магнитная ссылка Размер: 6.47 GB Добавлен: 2024-02-04 17:00
Пиры будут получены из сети DHT
Последний сидер был замечен 2024-02-05 10:48
«"Once upon a time ..."» Информация о фильме Название: Дом тьмы Оригинальное название: House of Darkness Год выхода: 2022 Жанр: Комедия, ужасы Режиссер: Нил Лабут В ролях: Джастин Лонг, Кейт Босворт, Джиа Кроватин, Люси Уолтерс, Эмили Джой Конли О фильме: Хап знакомится в баре с очаровательной девушкой и, когда она просит довезти её до дома, не может отказать. Дом оказывается старинным особняком в глуши, а новая знакомая кажется наследницей богатого рода, поэтому парень с удовольствием принимает приглашение зайти выпить. Флирт продолжается, Хап не может поверить своему везению, когда вдруг события принимают неожиданный поворот. Страна: США Студия: SSS Entertainment, SSS Film Capital Продолжительность: 01:28:28 Перевод: * Профессиональный (полное дублирование) | Официальный *** В дубляже (WEB-DL) отсутствует пару сцен ~ 40 секунд, озвучено Любительским (двухголосым, закадровым) | Pazl Voice * Любительский (двухголосый, закадровый) | Pazl Voice Файл Качество: BDRip 1080p Исходник: House.of.Darkness.2022.MULTi.COMPLETE.BLURAY-WDC Формат: MKV Кодек: MPEG-4 AVC Видео: 1920x804 (2.40:1), 23.976 fps, MPEG-4 AVC ~ 9067 Kbps avg, 0.245 bit/pixel Аудио: AC3, 48 kHz, 6 ch, ~384.00 kbps avg | русский | DUB | Аудио: AC3, 48 kHz, 6 ch, ~384.00 kbps avg | русский | DVO | Аудио: AC3, 48 kHz, 6 ch, ~640.00 kbps avg | английский | Субтитры: Русские (Forced), Английские (Full, SDH)
[+] Инфо-файлОбщее Уникальный идентификатор : 181203622580959637913484202458272743589 (0x88528C5BD111D4B691F22636337BC0A5) Полное имя : House.of.Darkness.2022.1080p.BluRay.DD.5.1.x264-MegaPeer.mkv Формат : Matroska Версия формата : Version 4 Размер файла : 6,47 Гбайт Продолжительность : 1 ч. 28 м. Общий поток : 10,5 Мбит/сек Частота кадров : 23,976 кадра/сек Название фильма : Дом тьмы / House of Darkness (2022) от stillet@MegaPeer Дата кодирования : 2024-02-04 08:56:30 UTC Программа кодирования : mkvmerge v15.0.0 ('Duel with the Devil') 64-bit Библиотека кодирования : libebml v1.3.5 + libmatroska v1.4.5 Обложка : Yes Attachments : cover.jpg Видео Идентификатор : 1 Формат : AVC Формат/Информация : Advanced Video Codec Профиль формата : High@L4.1 Настройки формата : CABAC / 5 Ref Frames Параметр CABAC формата : Да Параметр RefFrames формата : 5 кадров Идентификатор кодека : V_MPEG4/ISO/AVC Продолжительность : 1 ч. 28 м. Битрейт : 9 067 Кбит/сек Ширина : 1 920 пикселей Высота : 804 пикселя Соотношение сторон : 2,40:1 Режим частоты кадров : Постоянный Частота кадров : 23,976 (24000/1001) кадра/сек Цветовое пространство : YUV Субдискретизация насыщенности : 4:2:0 Битовая глубина : 8 бит Тип развёртки : Прогрессивная Бит/(Пиксели*Кадры) : 0.245 Размер потока : 5,59 Гбайт (87%) Библиотека кодирования : x264 core 164 r3156+57M stillet t_mod_New Настройки программы : cabac=1 / ref=5 / deblock=1:-3:-3 / analyse=0x3:0x113 / me=umh / subme=10 / psy=1 / fade_compensate=0.00 / psy_rd=1.03:0.02 / mixed_ref=1 / me_range=32 / chroma_me=1 / trellis=2 / 8x8dct=1 / cqm=0 / deadzone=21,11 / fast_pskip=0 / chroma_qp_offset=-3 / threads=12 / lookahead_threads=3 / sliced_threads=0 / nr=0 / decimate=0 / interlaced=0 / bluray_compat=0 / constrained_intra=0 / fgo=0 / bframes=12 / b_pyramid=2 / b_adapt=2 / b_bias=0 / direct=3 / weightb=1 / open_gop=0 / weightp=2 / keyint=240 / keyint_min=24 / scenecut=40 / intra_refresh=0 / rc_lookahead=40 / rc=2pass / mbtree=0 / bitrate=9067 / ratetol=1.0 / qcomp=0.60 / qpmin=0:0:0 / qpmax=69:69:69 / qpstep=4 / cplxblur=20.0 / qblur=0.5 / vbv_maxrate=50000 / vbv_bufsize=62500 / nal_hrd=none / filler=0 / ip_ratio=1.40 / pb_ratio=1.30 / aq=1:1.10 / aq-sensitivity=10.00 / aq-factor=1.00:1.00:1.00 / aq2=0 / aq3=0 Язык : English Default : Да Forced : Нет Аудио #1 Идентификатор : 2 Формат : AC-3 Формат/Информация : Audio Coding 3 Коммерческое название : Dolby Digital Идентификатор кодека : A_AC3 Продолжительность : 1 ч. 28 м. Вид битрейта : Постоянный Битрейт : 384 Кбит/сек Каналы : 6 каналов Channel layout : L R C LFE Ls Rs Частота : 48,0 КГц Частота кадров : 31,250 кадров/сек (1536 SPF) Метод сжатия : С потерями Размер потока : 243 Мбайт (4%) Заголовок : DUB | Официальный Язык : Russian Service kind : Complete Main Default : Да Forced : Да Аудио #2 Идентификатор : 3 Формат : AC-3 Формат/Информация : Audio Coding 3 Коммерческое название : Dolby Digital Идентификатор кодека : A_AC3 Продолжительность : 1 ч. 28 м. Вид битрейта : Постоянный Битрейт : 384 Кбит/сек Каналы : 6 каналов Channel layout : L R C LFE Ls Rs Частота : 48,0 КГц Частота кадров : 31,250 кадров/сек (1536 SPF) Метод сжатия : С потерями Размер потока : 243 Мбайт (4%) Заголовок : DVO | Pazl Voice Язык : Russian Service kind : Complete Main Default : Нет Forced : Нет Аудио #3 Идентификатор : 4 Формат : AC-3 Формат/Информация : Audio Coding 3 Коммерческое название : Dolby Digital Идентификатор кодека : A_AC3 Продолжительность : 1 ч. 28 м. Вид битрейта : Постоянный Битрейт : 640 Кбит/сек Каналы : 6 каналов Channel layout : L R C LFE Ls Rs Частота : 48,0 КГц Частота кадров : 31,250 кадров/сек (1536 SPF) Метод сжатия : С потерями Размер потока : 405 Мбайт (6%) Язык : English Service kind : Complete Main Default : Нет Forced : Нет Текст #1 Идентификатор : 5 Формат : UTF-8 Идентификатор кодека : S_TEXT/UTF8 Идентификатор кодека/Информация : UTF-8 Plain Text Продолжительность : 1 ч. 23 м. Битрейт : 0 бит/сек Частота кадров : 0,001 кадр/сек Count of elements : 3 Размер потока : 86,0 байт (0%) Заголовок : Forced Язык : Russian Default : Да Forced : Да Текст #2 Идентификатор : 6 Формат : UTF-8 Идентификатор кодека : S_TEXT/UTF8 Идентификатор кодека/Информация : UTF-8 Plain Text Продолжительность : 1 ч. 24 м. Битрейт : 67 бит/сек Частота кадров : 0,380 кадр/сек Count of elements : 1933 Размер потока : 42,0 Кбайт (0%) Заголовок : Full Язык : English Default : Нет Forced : Нет Текст #3 Идентификатор : 7 Формат : UTF-8 Идентификатор кодека : S_TEXT/UTF8 Идентификатор кодека/Информация : UTF-8 Plain Text Продолжительность : 1 ч. 27 м. Битрейт : 73 бит/сек Частота кадров : 0,417 кадр/сек Count of elements : 2185 Размер потока : 47,0 Кбайт (0%) Заголовок : SDH Язык : English Default : Нет Forced : Нет Меню 00:00:00.000 : Chapter 01 00:07:06.760 : Chapter 02 00:15:22.004 : Chapter 03 00:22:36.438 : Chapter 04 00:30:20.068 : Chapter 05 00:38:39.692 : Chapter 06 00:46:00.299 : Chapter 07 00:52:32.816 : Chapter 08 01:00:25.789 : Chapter 09 01:06:59.849 : Chapter 10 01:13:34.327 : Chapter 11 01:19:15.084 : Chapter 12 01:25:08.520 : Chapter 13
Релиз:

Всего файлов в раздаче: 1 
House.of.Darkness.2022.1080p.BluRay.DD.5.1.x264-MegaPeer.mkv6.47 GB

Похожие раздачи по запросу - Дом
2024-02-05 magnet Дом тьмы / House of Darkness (2022) BDRemux 1080p | D, L2 17.01 GB ↑ 0 ↓ 0
2024-02-04 magnet Дом тьмы / House of Darkness (2022) BDRip от MegaPeer | D 1.46 GB ↑ 0 ↓ 0
2024-02-04 magnet Дом тьмы / House of Darkness (2022) BDRip 720p от MegaPeer | D, L2 3.06 GB ↑ 0 ↓ 0
2024-02-04 magnet Дом тьмы / House of Darkness (2022) WEB-DLRip-AVC от DoMiNo | Pazl Voice 744.78 MB ↑ 0 ↓ 0
2024-02-03 magnet Ричард Матесон - Адский дом (2023) MP3 334.95 MB ↑ 0 ↓ 0
2024-01-31 magnet Дом из песка и тумана / House of Sand and Fog (2003) WEB-DLRip-AVC от DoMiNo | D 1.85 GB ↑ 0 ↓ 0
2024-01-31 magnet Дом из песка и тумана / House of Sand and Fog (2003) HDTVRip 720p от msltel | D, P, P2, A 7.67 GB ↑ 0 ↓ 0

Комментарии


Зарегистрируйтесь чтобы добавить комментарий
Торрент клиент
byTorrent - программа для загрузки торрент-файлов.

Скачать byTorrent.exe (1,5 МБ)

Скачать byTorrent.zip (0,6 МБ)

Поддержи torrent.by
российских рублей
(300 российских рублей это 4$)

Обратная связь rss

End game ©