↑↓torrent.by
Поиск
Логин:  Регистрация
Пароль:

Сказки завтрашнего дня / Tales of Tomorrow [S01-02] (1951) TVRip | L1

download Скачать торрент-файл   magnet Магнитная ссылка Размер: 5.70 GB Добавлен: 2024-02-05 05:00
Пиры будут получены из сети DHT
Последний сидер был замечен 2024-02-05 05:00
Информация о фильме Название: Сказки завтрашнего дня Оригинальное название: Tales of Tomorrow Год выхода: 1951 Жанр: фантастика, драма Режиссер: Чарльз Дубин, Дон Метфорд, Франклин Джеймс Шеффнер В ролях: Лесли Нильсен, Ева Габор, Пол Ньюман, Клорис Личмен, Вероника Лейк, Джин Локхарт, Брюс Кэбот. О фильме: Антология несвязанных между собой фантастических историй, от авторов конца XIX, начала XX века, как классиков (такие как «Двадцать тысяч льё под водой», «Франкенштейн, или Современный Прометей»), так и более современных авторов, например «Чёрный чемоданчик» (Сирил Корнблат), «Необходимая вещь» (Роберт Шекли), «Чудо-сыворотка» (Стенли Грумен Вейнбаум) и др. От переводчика: изначально сериал шёл в прямом эфире и лишь часть серий была сохранена и записана вещательной компанией ABC, позже она вышла на ТВ, кассетах и DVD. Представлены только сохранившиеся истории. Текущие серии
[+] Скрытый текст Сезон 1 Серия 02. Blunder — Просчёт Серия 03. A Child Is Crying — Плач ребёнка Серия 08. The Dark Angel — Ангел Тьмы Серия 09. The Crystal Egg — Хрустальное яйцо Серия 10. Test Flight — Испытательный полёт Серия 11. The Search for the Flying Saucer — В поисках летающих тарелок Серия 13. Sneak Attack — Внезапная атака Серия 14. The Invader — Захватчик Серия 15. The Dune Roller — Катящийся по дюнам Серия 18. 20,000 leagues under the sea Part 2 The escape — 20,000 лье под водой Часть 2 Побег Серия 19. What You Need — То, что вам нужно Серия 20. Age of Peril — Эра опасности Серия 22. The Children’s Room — Детская комната Серия 24. The diamond lens — Алмазная линза Серия 26. Flight Overdue — Отложенный рейс Серия 29. Time to Go — Время идти Серия 30. Plague from Space — Чума из космоса Серия 31. Red Dust — Красная пыль Серия 32. The Golden Ingot — Золотой слиток Серия 34. World of Water — Мир воды Серия 35. The Little Black Bag — Маленький чёрный чемоданчик Серия 38. The Miraculous Serum — Чудо-сыворотка Серия 39. Appointment on Mars — Встреча на Марсе Серия 40. The Duplicates — Дубликаты Серия 41. Ahead of His Time — Впереди его времени Серия 43. Ice from Space — Лёд из космоса Сезон 2 Серия 03. Seeing-Eye Surgeon — Видящий глаз хирурга Серия 06. Youth on Tap — Молодость в разлив
Страна: США Продолжительность: ~00:25:15 Перевод: одноголосый, закадровый, любительский (Трамвай-фильм) Файл Кодек: Xvid Качество: TVRip Видео: 640x480, 24fps, 1199kbps Звук: MP3, 44100Hz, stereo, 128kbps Субтитры: нет
[+] Скриншоты
[+] Пример МИ General Complete name : Tales of Tommorow (Tramvai.film)/Tales Of Tomorrow s1e08 The Dark Angel.avi Format : AVI Format/Info : Audio Video Interleave File size : 266 MiB Duration : 27 min 45 s Overall bit rate : 1 343 kb/s Video ID : 0 Format : MPEG-4 Visual Format profile : Simple@L3 Format settings, BVOP : No Format settings, QPel : No Format settings, GMC : No warppoints Format settings, Matrix : Default (H.263) Codec ID : XVID Codec ID/Hint : XviD Duration : 27 min 45 s Bit rate : 1 199 kb/s Width : 640 pixels Height : 480 pixels Display aspect ratio : 4:3 Frame rate : 24.000 FPS Color space : YUV Chroma subsampling : 4:2:0 Bit depth : 8 bits Scan type : Progressive Compression mode : Lossy Bits/(Pixel*Frame) : 0.163 Stream size : 238 MiB (89%) Writing library : XviD 1.2.1 (UTC 2008-12-04) Audio ID : 1 Format : MPEG Audio Format version : Version 1 Format profile : Layer 3 Format settings : Joint stereo / MS Stereo Codec ID : 55 Codec ID/Hint : MP3 Duration : 27 min 45 s Bit rate mode : Constant Bit rate : 128 kb/s Channel(s) : 2 channels Sampling rate : 44.1 kHz Compression mode : Lossy Stream size : 25.4 MiB (10%) Alignment : Aligned on interleaves Interleave, duration : 26 ms (0.63 video frame) Writing library : LAME3.98.2
Релиз от: Трамвай-фильм / kosmoaelita

Всего файлов в раздаче: 28 
Tales Of Tomorrow s1e02 Blunder.avi158.47 MB
Tales Of Tomorrow s1e03 A Child Is Crying.avi242.59 MB
Tales Of Tomorrow s1e08 The Dark Angel.avi266.50 MB
Tales Of Tomorrow s1e09 The Crystal Egg.avi267.44 MB
Tales Of Tomorrow s1e10 Test Flight.avi266.07 MB
Tales Of Tomorrow s1e11 The Search for the Flying Saucer .avi269.20 MB
Tales Of Tomorrow s1e13 Sneak Attack.avi182.11 MB
Tales Of Tomorrow s1e14 The Invader.avi168.68 MB
Tales Of Tomorrow s1e15 The Dune Roller.avi163.25 MB
Tales Of Tomorrow s1e18 20,000 leagues under the sea. Part 2 The escape.avi151.39 MB
Показать все файлы

Похожие раздачи по запросу - Сказки
2024-01-28 magnet Артемизия - Недетские сказки [Караоке] (2024) FLAC 229.46 MB ↑ 0 ↓ 0
2024-01-13 magnet Сборник - Абхазские народные сказки (2024) MP3 539.16 MB ↑ 0 ↓ 0
2023-12-30 magnet Шляхов Андрей - Научные сказки. География на пальцах (2023) MP3 483.63 MB ↑ 0 ↓ 0
2023-12-27 magnet Сборник - Детские сказки с пластинок (1969-1982) МР3 1.42 GB ↑ 0 ↓ 0

Комментарии


Зарегистрируйтесь чтобы добавить комментарий
Торрент клиент
byTorrent - программа для загрузки торрент-файлов.

Скачать byTorrent.exe (1,5 МБ)

Скачать byTorrent.zip (0,6 МБ)

Поддержи torrent.by
российских рублей
(300 российских рублей это 4$)

Обратная связь rss

End game ©