↑↓torrent.by
Поиск
Логин:  Регистрация
Пароль:

Вечно молодой / Forever Young (1992) WEB-DLRip-AVC от DoMiNo | P

download Скачать торрент-файл   magnet Магнитная ссылка Размер: 2.49 GB Добавлен: 2024-02-05 05:00
Пиры будут получены из сети DHT
Последний сидер был замечен 2024-02-09 20:38
Информация о фильме Название: Вечно молодой Оригинальное название: Forever Young Год выхода: 1992 Жанр: Фантастика, мелодрама, комедия, приключения Режиссер: Стив Майнер В ролях: Мэл Гибсон, Джейми Ли Кёртис, Элайджа Вуд, Изабель Глэссер, Джордж Уэндт, Джо Мортон, Николас Сурови, Дэвид Маршалл Грант, Роберт Хай Гормен, Милли Слэвин, Майкл А. Гурджиан, Вероника Лорен, Арт Лафлёр, Эрик Пиерпоинт, Уолтон Гоггинс, Аманда Формен О фильме: События разворачиваются в 1939 году. Бесшабашный пилот-испытатель Дэниэл МакКормик никак не может отважиться сделать предложение своей возлюбленной Хелен, откладывая до последнего момента. Но счастье не ждет до завтра - девушка впадает в состояние комы в результате несчастного случая. Убитый горем Дэвид, соглашается на уникальный криогенный эксперимент, в котором он будет заморожен на год. Когда МакКормик пришел в сознание, на улице уже был 1992 год... Страна: США, Канада Студия: Icon Entertainmnet International, Warner Bros. Pictures Продолжительность: 01:41:33 Перевод: Профессиональный (многоголосый, закадровый)- Россия-ТВЦ??? Субтитры: English Файл Формат: Matroska Качество: WEB-DLRip-AVC Видео: 1038x588 at 23.976 fps, x264, ~3123 kbps, 0.213 bpp Аудио #1: AC3, 48 kHz, 2 ch, 192 kbps - Русский, MVO) Аудио #2: AC3, 48 kHz, 2 ch, 192 kbps - Английский, оригинал Формат субтитров: softsub (SRT) ***Релиз от: -=DoMiNo=-
[+] M/Ix264 info: frame I:1018 Avg QP:17.05 size: 74302 x264 info: frame P:27710 Avg QP:18.29 size: 33995 x264 info: frame B:117372 Avg QP:20.41 size: 11598 x264 info: consecutive B-frames: 1.1% 1.1% 4.1% 10.7% 10.0% 66.3% 4.2% 1.1% 0.7% 0.4% 0.4% General Format : Matroska Format version : Version 4 File size : 2.49 GiB Duration : 1 h 41 min Overall bit rate : 3 509 kb/s Movie name : Вечно молодой.(1992).WEB-DLRip-AVC.F.S. Encoded date : UTC 2019-09-27 15:56:07 Writing application : mkvmerge v37.0.0 ('Leave It') 64-bit Writing library : libebml v1.3.9 + libmatroska v1.5.2 Attachments : poster / poster Video ID : 1 Format : AVC Format/Info : Advanced Video Codec Format profile : High@L4.1 Format settings : CABAC / 10 Ref Frames Format settings, CABAC : Yes Format settings, Reference : 10 frames Codec ID : V_MPEG4/ISO/AVC Duration : 1 h 41 min Bit rate : 3 123 kb/s Width : 1 038 pixels Height : 588 pixels Display aspect ratio : 16:9 Frame rate mode : Constant Frame rate : 23.976 (24000/1001) FPS Color space : YUV Chroma subsampling : 4:2:0 Bit depth : 8 bits Scan type : Progressive Bits/(Pixel*Frame) : 0.213 Stream size : 2.22 GiB (89%) Title : RIP_BY_-=DoMiNo=- Writing library : x264 core 157 r2958 57baac4 Encoding settings : cabac=1 / ref=10 / deblock=1:-2:-2 / analyse=0x3:0x133 / me=umh / subme=10 / psy=1 / psy_rd=1.00:0.00 / mixed_ref=1 / me_range=32 / chroma_me=1 / trellis=2 / 8x8dct=1 / cqm=0 / deadzone=21,11 / fast_pskip=1 / chroma_qp_offset=-2 / threads=6 / lookahead_threads=1 / sliced_threads=0 / nr=0 / decimate=1 / interlaced=0 / bluray_compat=0 / constrained_intra=0 / bframes=10 / b_pyramid=2 / b_adapt=2 / b_bias=0 / direct=1 / weightb=1 / open_gop=0 / weightp=2 / keyint=240 / keyint_min=24 / scenecut=40 / intra_refresh=0 / rc=crf / mbtree=0 / crf=19.0 / qcomp=0.60 / qpmin=0 / qpmax=69 / qpstep=4 / ip_ratio=1.40 / pb_ratio=1.30 / aq=3:1.00 Language : English Default : Yes Forced : No Color range : Limited Color primaries : BT.709 Transfer characteristics : BT.709 Matrix coefficients : BT.709 Audio #1 ID : 2 Format : AC-3 Format/Info : Audio Coding 3 Commercial name : Dolby Digital Codec ID : A_AC3 Duration : 1 h 41 min Bit rate mode : Constant Bit rate : 192 kb/s Channel(s) : 2 channels Channel layout : L R Sampling rate : 48.0 kHz Frame rate : 31.250 FPS (1536 SPF) Bit depth : 16 bits Compression mode : Lossy Stream size : 139 MiB (5%) Title : MVO Language : Russian Service kind : Complete Main Default : Yes Forced : No Audio #2 ID : 3 Format : AC-3 Format/Info : Audio Coding 3 Commercial name : Dolby Digital Codec ID : A_AC3 Duration : 1 h 41 min Bit rate mode : Constant Bit rate : 192 kb/s Channel(s) : 2 channels Channel layout : L R Sampling rate : 48.0 kHz Frame rate : 31.250 FPS (1536 SPF) Bit depth : 16 bits Compression mode : Lossy Stream size : 139 MiB (5%) Title : ENG Language : English Service kind : Complete Main Default : No Forced : No Text ID : 4 Format : UTF-8 Codec ID : S_TEXT/UTF8 Codec ID/Info : UTF-8 Plain Text Duration : 1 h 39 min Bit rate : 50 b/s Count of elements : 1662 Stream size : 36.8 KiB (0%) Title : English Language : English Default : No Forced : No Menu 00:00:00.000 : :Глава 1 00:08:28.049 : :Глава 2 00:15:42.441 : :Глава 3 00:22:28.430 : :Глава 4 00:28:36.632 : :Глава 5 00:37:32.167 : :Глава 6 00:45:18.215 : :Глава 7 00:53:01.345 : :Глава 8 00:59:27.314 : :Глава 9 01:06:41.789 : :Глава 10 01:15:02.039 : :Глава 11 01:21:22.920 : :Глава 12 01:27:18.275 : :Глава 13 01:32:38.595 : :Глава 14 01:37:27.967 : :Глава 15
[+] Скриншоты

Всего файлов в раздаче: 1 
Вечно молодой.(1992).WEB-DLRip-AVC.F.S.[-=DoMiNo=-].mkv2.49 GB

Похожие раздачи по запросу - Вечно
2024-02-09 magnet Вечно молодой / Forever Young (1992) WEB-DLRip 1080p | P, A 9.36 GB ↑ 0 ↓ 0
2024-02-07 magnet Вечно молодой / Forever Young (1992) WEBRip от toxics | P, A 2К2.19 GB ↑ 0 ↓ 0
2024-02-05 magnet Вечно молодой / Forever Young (1992) WEBRip от toxics | P, A 2.19 GB ↑ 0 ↓ 0

Комментарии


Зарегистрируйтесь чтобы добавить комментарий
Торрент клиент
byTorrent - программа для загрузки торрент-файлов.

Скачать byTorrent.exe (1,5 МБ)

Скачать byTorrent.zip (0,6 МБ)

Поддержи torrent.by
российских рублей
(300 российских рублей это 4$)

Обратная связь rss

End game ©