↑↓torrent.by
Поиск
Логин:  Регистрация
Пароль:

Что, если...? / What If...? [02x01-02 из 09] (2023) WEB-DLRip 1080p | D | Локализованная версия | Flarrow Films

download Скачать торрент-файл   magnet Магнитная ссылка Размер: 2.79 GB Добавлен: 2024-02-05 11:00
Пиры будут получены из сети DHT
Последний сидер был замечен 2024-02-05 11:00
Информация о фильме Название: Что, если...? Оригинальное название: What If...? Год выхода: 2023 Жанр: мультфильм, фантастика, боевик, приключения Режиссер: Брайан Эндрюс, Стефан Франк В ролях: Джеффри Райт, Хейли Этвелл, Бенедикт Камбербэтч, Майкл Б. Джордан, Сэмюэл Л. Джексон, Пол Беттани, Джереми Реннер, Том Хиддлстон, Крис Хемсворт, Джошуа Китон, Карен Гиллан, Джон Фавро, Марк Руффало, Курт Рассел, Майкл Дуглас, Фрэнк Грилло, Тайка Вайтити, Кейт Бланшетт О фильме: Каждый фанат комиксов от Marvel задавался вопросом, а что было бы, если бы любимые персонажи не принимали те или иные роковые решения. Создатели сериала представляют, что будет, если изменить некоторые важные моменты из жизни персонажей Marvel. Страна: США Продолжительность: 00:28:39 Перевод: Дублированный (неофициальный) | Flarrow Films Роли озвучивали: Алексей Ляпунов, Андрей Градов, Валерий Сторожик, Илья Бледный, Станислав Концевич, Александр Новиков, Андрей Казанцев, Ирина Пономарёва, Светлана Кузнецова, Василий Дахненко, Михаил Тихонов, Таисия Тришина, Леон Автаев, Андрей Маслов, Светлана Шейченко, Александр Скиданов, Анатолий Нокс, Ахилл Намазов, Дмитрий Мальков, Елена Ефремова, Семён Евсиков, Алексей Ядренников Файл Формат:MKV Кодек: MPEG-4 AVC Качество: WEB-DLRip 1080p (Локализированный видеоряд) Видео: 1920х1080, ~ 6 371 kb/s, 24.000, 8 bits Аудио: AC-3, 192 kb/s, 2 channels, 48.0 kHz Субтитры: Русские (отключаемые UTF-8)
[+] MediaInfo General Unique ID : 11729906104117547415642666014974138067 (0x8D319058F297387C50785E64BBBD6D3) Complete name : C:Flarrow FilmsWhat.If.2021.S02.1080p.D.Flarrow.FilmsWhat.If.2021.S02E01.mkv Format : Matroska Format version : Version 4 File size : 1.31 GiB Duration : 28 min 39 s Overall bit rate : 6 565 kb/s Encoded date : UTC 2024-01-26 05:49:43 Writing application : mkvmerge v45.0.0 ('Heaven in Pennies') 64-bit Writing library : libebml v1.3.10 + libmatroska v1.5.2 Video ID : 1 Format : AVC Format/Info : Advanced Video Codec Format profile : High@L4 Format settings : CABAC / 4 Ref Frames Format settings, CABAC : Yes Format settings, Reference : 4 frames Format settings, GOP : M=1, N=3 Codec ID : V_MPEG4/ISO/AVC Duration : 28 min 39 s Bit rate : 6 371 kb/s Nominal bit rate : 6 701 kb/s Width : 1 920 pixels Height : 1 080 pixels Display aspect ratio : 16:9 Frame rate mode : Constant Frame rate : 24.000 FPS Color space : YUV Chroma subsampling : 4:2:0 Bit depth : 8 bits Scan type : Progressive Bits/(Pixel*Frame) : 0.128 Stream size : 1.28 GiB (97%) Writing library : x264 core 161 Encoding settings : cabac=1 / ref=4 / deblock=1:1:1 / analyse=0x3:0x113 / me=hex / subme=4 / psy=1 / psy_rd=0.40:0.00 / mixed_ref=0 / me_range=16 / chroma_me=1 / trellis=1 / 8x8dct=1 / cqm=0 / deadzone=21,11 / fast_pskip=1 / chroma_qp_offset=0 / threads=12 / lookahead_threads=3 / sliced_threads=0 / nr=0 / decimate=1 / interlaced=0 / bluray_compat=0 / constrained_intra=0 / bframes=2 / b_pyramid=0 / b_adapt=1 / b_bias=0 / direct=1 / weightb=1 / open_gop=0 / weightp=1 / keyint=192 / keyint_min=19 / scenecut=40 / intra_refresh=0 / rc_lookahead=20 / rc=abr / mbtree=1 / bitrate=6701 / ratetol=1.0 / qcomp=0.60 / qpmin=0 / qpmax=69 / qpstep=4 / vbv_maxrate=8932 / vbv_bufsize=13402 / nal_hrd=none / filler=0 / ip_ratio=1.40 / aq=1:0.60 Default : Yes Forced : No Color range : Limited Color primaries : BT.709 Transfer characteristics : BT.709 Matrix coefficients : BT.709 Audio ID : 2 Format : AC-3 Format/Info : Audio Coding 3 Commercial name : Dolby Digital Codec ID : A_AC3 Duration : 28 min 39 s Bit rate mode : Constant Bit rate : 192 kb/s Channel(s) : 2 channels Channel layout : L R Sampling rate : 48.0 kHz Frame rate : 31.250 FPS (1536 SPF) Compression mode : Lossy Stream size : 39.4 MiB (3%) Service kind : Complete Main Default : Yes Forced : No Text ID : 3 Format : UTF-8 Codec ID : S_TEXT/UTF8 Codec ID/Info : UTF-8 Plain Text Duration : 25 min 51 s Bit rate : 114 b/s Frame rate : 0.262 FPS Count of elements : 406 Stream size : 21.7 KiB (0%) Default : Yes Forced : No
[+] Скриншоты
Релиз от: Flarrow Films Примечание: Релиз без рекламы.

Всего файлов в раздаче: 2 
What.If.2021.S02E01.mkv1.31 GB
What.If.2021.S02E02.mkv1.48 GB

Похожие раздачи по запросу - Что
2024-02-14 magnet О чём не скажут школьницы / Что скрывают школьницы / Was Schulmädchen verschweigen / Secrets of Sweet Sixteen (1973) HDRip | А 700.93 MB ↑ 0 ↓ 0
2024-02-12 magnet Что скрывает вода / What Lies Below (2020) HDRip-AVC | КПК | D 400.32 MB ↑ 0 ↓ 0
2024-02-11 magnet Что скрывает вода / What Lies Below (2020) BDRip 720p от селезень | iTunes 4.04 GB ↑ 0 ↓ 0
2024-02-11 magnet Что скрывает вода / What Lies Below (2020) BDRip 1080p от селезень | iTunes 2К7.31 GB ↑ 0 ↓ 0
2024-02-11 magnet Что нашел, то мое / Finders Keepers [S01] (2024) HDTV 1080p | L | ColdFilm 10.93 GB ↑ 0 ↓ 0
2024-02-08 magnet Новый горячий секс-доклад — То, что мужья считают невозможным / Der neue heiße Sex-Report - Was Männer nicht für möglich (1971) DVDRip | L1 745.43 MB ↑ 0 ↓ 0
2024-02-05 magnet Я всегда знал, что вы сделали прошлым летом / I'll Always Know What You Did Last Summer (2006) BDRemux 1080p от селезень | P 24.21 GB ↑ 0 ↓ 0

Комментарии


Зарегистрируйтесь чтобы добавить комментарий
Торрент клиент
byTorrent - программа для загрузки торрент-файлов.

Скачать byTorrent.exe (1,5 МБ)

Скачать byTorrent.zip (0,6 МБ)

Поддержи torrent.by
российских рублей
(300 российских рублей это 4$)

Обратная связь rss

End game ©