↑↓torrent.by
Поиск
Логин:  Регистрация
Пароль:

Kmfdm - Let Go (2024) FLAC

download Скачать торрент-файл   magnet Магнитная ссылка Размер: 314.01 MB Добавлен: 2024-02-05 11:00
Пиры будут получены из сети DHT
Последний сидер был замечен 2024-02-12 02:02
Kmfdm - Let Go (2024) Жанр: Progressive-Rock, Industrial-Rock, Electro-Industrial Продолжительность: 00:44:02 Кодек: FLAC Битрейт: Lossless Тип рипа: tracks + .cue Треклист: 01. Let Go 02. Push! 03. Next Move 04. Airhead 05. Turn The Light On 06. Touch 07. Erlkönig 08. When The Bell Tolls 09. Totem E. Eggs 10. WW 2023 11. Fillet Manchego Claret & Blow
[+] Дополнительная информация: Страна исполнителя (группы): Germany https://kmfdm.bandcamp.com/music
[+] Отчёт EAC: Exact Audio Copy V1.3 from 2. September 2016 EAC extraction logfile from 2. February 2024, 13:07 KMFDM / Let Go Used drive : ASUS DRW-24B1ST a Adapter: 1 ID: 0 Read mode : Secure Utilize accurate stream : Yes Defeat audio cache : Yes Make use of C2 pointers : No Read offset correction : 6 Overread into Lead-In and Lead-Out : No Fill up missing offset samples with silence : Yes Delete leading and trailing silent blocks : No Null samples used in CRC calculations : Yes Used interface : Native Win32 interface for Win NT & 2000 Gap handling : Appended to previous track Used output format : User Defined Encoder Selected bitrate : 1024 kBit/s Quality : High Add ID3 tag : No Command line compressor : C:EAC ripsflac-1.3.2-winflac-1.3.2-winwin64flac.exe Additional command line options : -8 -V -T "ARTIST=%artist%" -T "TITLE=%title%" -T "ALBUM=%albumtitle%" -T "DATE=%year%" -T "TRACKNUMBER=%tracknr%" -T "GENRE=%genre%" -T "PERFORMER=%albuminterpret%" -T "COMPOSER=%composer%" %haslyrics%--tag-from-file=LYRICS="%lyricsfile%"%haslyrics% -T "ALBUMARTIST=%albumartist%" -T "DISCNUMBER=%cdnumber%" -T "TOTALDISCS=%totalcds%" -T "TOTALTRACKS=%numtracks%" -T "COMMENT=%comment%" %source% -o %dest% TOC of the extracted CD Track | Start | Length | Start sector | End sector --------------------------------------------------------- 1 | 0:00.00 | 4:12.20 | 0 | 18919 2 | 4:12.20 | 4:34.52 | 18920 | 39521 3 | 8:46.72 | 5:09.44 | 39522 | 62740 4 | 13:56.41 | 4:41.55 | 62741 | 83870 5 | 18:38.21 | 5:02.40 | 83871 | 106560 6 | 23:40.61 | 4:23.16 | 106561 | 126301 7 | 28:04.02 | 4:17.45 | 126302 | 145621 8 | 32:21.47 | 3:26.39 | 145622 | 161110 9 | 35:48.11 | 3:54.41 | 161111 | 178701 10 | 39:42.52 | 3:30.25 | 178702 | 194476 11 | 43:13.02 | 0:49.57 | 194477 | 198208 Track 1 Filename C:EAC ripsKMFDM - Let Go (2024) �1 - KMFDM - Let Go.wav Pre-gap length 0:00:02.00 Peak level 98.8 % Extraction speed 3.3 X Track quality 100.0 % Test CRC 96440C8C Copy CRC 96440C8C Track not present in AccurateRip database Copy OK Track 2 Filename C:EAC ripsKMFDM - Let Go (2024) �2 - KMFDM - Push!.wav Peak level 98.8 % Extraction speed 3.8 X Track quality 100.0 % Test CRC 4AD5A711 Copy CRC 4AD5A711 Track not present in AccurateRip database Copy OK Track 3 Filename C:EAC ripsKMFDM - Let Go (2024) �3 - KMFDM - Next Move.wav Peak level 98.8 % Extraction speed 4.2 X Track quality 100.0 % Test CRC C4F2927F Copy CRC C4F2927F Track not present in AccurateRip database Copy OK Track 4 Filename C:EAC ripsKMFDM - Let Go (2024) �4 - KMFDM - Airhead.wav Peak level 98.8 % Extraction speed 4.5 X Track quality 100.0 % Test CRC 45E52351 Copy CRC 45E52351 Track not present in AccurateRip database Copy OK Track 5 Filename C:EAC ripsKMFDM - Let Go (2024) �5 - KMFDM - Turn The Light On.wav Peak level 98.8 % Extraction speed 4.9 X Track quality 100.0 % Test CRC 345138B4 Copy CRC 345138B4 Track not present in AccurateRip database Copy OK Track 6 Filename C:EAC ripsKMFDM - Let Go (2024) �6 - KMFDM - Touch.wav Peak level 98.8 % Extraction speed 5.1 X Track quality 100.0 % Test CRC C5AB66BF Copy CRC C5AB66BF Track not present in AccurateRip database Copy OK Track 7 Filename C:EAC ripsKMFDM - Let Go (2024) �7 - KMFDM - Erlkönig.wav Peak level 98.8 % Extraction speed 4.3 X Track quality 99.9 % Test CRC 5F20CB88 Copy CRC 5F20CB88 Track not present in AccurateRip database Copy OK Track 8 Filename C:EAC ripsKMFDM - Let Go (2024) �8 - KMFDM - When The Bell Tolls.wav Peak level 98.8 % Extraction speed 5.3 X Track quality 100.0 % Test CRC 4C21B25C Copy CRC 4C21B25C Track not present in AccurateRip database Copy OK Track 9 Filename C:EAC ripsKMFDM - Let Go (2024) �9 - KMFDM - Totem E. Eggs.wav Peak level 98.8 % Extraction speed 5.6 X Track quality 100.0 % Test CRC 0033D31A Copy CRC 0033D31A Track not present in AccurateRip database Copy OK Track 10 Filename C:EAC ripsKMFDM - Let Go (2024) 10 - KMFDM - WW 2023.wav Peak level 98.8 % Extraction speed 5.7 X Track quality 100.0 % Test CRC D1DDFF58 Copy CRC D1DDFF58 Track not present in AccurateRip database Copy OK Track 11 Filename C:EAC ripsKMFDM - Let Go (2024) 11 - KMFDM - Fillet Manchego Claret & Blow.wav Peak level 98.8 % Extraction speed 3.8 X Track quality 100.0 % Test CRC 41ABA478 Copy CRC 41ABA478 Track not present in AccurateRip database Copy OK None of the tracks are present in the AccurateRip database No errors occurred End of status report ---- CUETools DB Plugin V2.1.6 disk not present in database Submit result: 9iZGxkHRBVl_0YUPpDIcmTnH.eQ- has been uploaded ==== Log checksum 01D2ADB660DD5A99FE7861AC4CB103B2E61A728B6E68BFE7F69F61FE1A389FF5 ====
[+] Отчёт CUE: REM GENRE Industrial REM DATE 2024 REM DISCID 900A520B REM COMMENT "ExactAudioCopy v1.3" CATALOG 0782388134323 PERFORMER "KMFDM" TITLE "Let Go" REM COMPOSER "" FILE "01 - KMFDM - Let Go.wav" WAVE TRACK 01 AUDIO TITLE "Let Go" PERFORMER "KMFDM" REM COMPOSER "" ISRC US57M2434301 INDEX 01 00:00:00 FILE "02 - KMFDM - Push!.wav" WAVE TRACK 02 AUDIO TITLE "Push!" PERFORMER "KMFDM" REM COMPOSER "" ISRC US57M2434302 INDEX 01 00:00:00 FILE "03 - KMFDM - Next Move.wav" WAVE TRACK 03 AUDIO TITLE "Next Move" PERFORMER "KMFDM" REM COMPOSER "" ISRC US57M2434303 INDEX 01 00:00:00 FILE "04 - KMFDM - Airhead.wav" WAVE TRACK 04 AUDIO TITLE "Airhead" PERFORMER "KMFDM" REM COMPOSER "" ISRC US57M2434304 INDEX 01 00:00:00 FILE "05 - KMFDM - Turn The Light On.wav" WAVE TRACK 05 AUDIO TITLE "Turn The Light On" PERFORMER "KMFDM" REM COMPOSER "" ISRC US57M2434305 INDEX 01 00:00:00 FILE "06 - KMFDM - Touch.wav" WAVE TRACK 06 AUDIO TITLE "Touch" PERFORMER "KMFDM" REM COMPOSER "" ISRC US57M2434306 INDEX 01 00:00:00 FILE "07 - KMFDM - Erlkцnig.wav" WAVE TRACK 07 AUDIO TITLE "Erlkцnig" PERFORMER "KMFDM" REM COMPOSER "" ISRC US57M2434307 INDEX 01 00:00:00 FILE "08 - KMFDM - When The Bell Tolls.wav" WAVE TRACK 08 AUDIO TITLE "When The Bell Tolls" PERFORMER "KMFDM" REM COMPOSER "" ISRC US57M2434308 INDEX 01 00:00:00 FILE "09 - KMFDM - Totem E. Eggs.wav" WAVE TRACK 09 AUDIO TITLE "Totem E. Eggs" PERFORMER "KMFDM" REM COMPOSER "" ISRC US57M2434309 INDEX 01 00:00:00 FILE "10 - KMFDM - WW 2023.wav" WAVE TRACK 10 AUDIO TITLE "WW 2023" PERFORMER "KMFDM" REM COMPOSER "" ISRC US57M2434310 INDEX 01 00:00:00 FILE "11 - KMFDM - Fillet Manchego Claret & Blow.wav" WAVE TRACK 11 AUDIO TITLE "Fillet Manchego Claret & Blow" PERFORMER "KMFDM" REM COMPOSER "" ISRC US57M2434311 INDEX 01 00:00:00

Всего файлов в раздаче: 14 
01 - KMFDM - Let Go.flac31.35 MB
02 - KMFDM - Push!.flac32.38 MB
03 - KMFDM - Next Move.flac36.29 MB
04 - KMFDM - Airhead.flac34.56 MB
05 - KMFDM - Turn The Light On.flac35.65 MB
06 - KMFDM - Touch.flac31.86 MB
07 - KMFDM - Erlkönig.flac29.35 MB
08 - KMFDM - When The Bell Tolls.flac23.99 MB
09 - KMFDM - Totem E. Eggs.flac28.49 MB
10 - KMFDM - WW 2023.flac24.49 MB
Показать все файлы

Похожие раздачи по запросу - Kmfdm
2024-02-02 magnet KMFDM - Let go (2024) MP3 102.30 MB ↑ 0 ↓ 0

Комментарии


Зарегистрируйтесь чтобы добавить комментарий
Торрент клиент
byTorrent - программа для загрузки торрент-файлов.

Скачать byTorrent.exe (1,5 МБ)

Скачать byTorrent.zip (0,6 МБ)

Поддержи torrent.by
российских рублей
(300 российских рублей это 4$)

Обратная связь rss

End game ©