↑↓torrent.by
Поиск
Логин:  Регистрация
Пароль:

The Great Alone - Perception [24Bit, Hi-Res] (2024) FLAC

download Скачать торрент-файл   magnet Магнитная ссылка Размер: 551.37 MB Добавлен: 2024-02-05 11:00
Пиры будут получены из сети DHT
Последний сидер был замечен 2024-02-09 20:03
The Great Alone - Perception (2024) Жанр: Alternative-Rock Издание: 2024 Pavement Entertainment, Inc Источник: qobuz Продолжительность: 00:46:08 Кодек: FLAC 24/44.1 Битрейт: Lossless|WEB-DL Тип рипа: tracks Треклист: 01 - The Call (00:02:03) 02 - Beyond Dreams (00:04:27) 03 - Mania (00:04:25) 04 - Stars And Storms (00:03:41) 05 - Prism (00:03:52) 06 - Cell (00:04:33) 07 - Quiet Place (00:04:32) 08 - Horizon (00:05:08) 09 - Icons (00:05:04) 10 - Reverie (00:04:10) 11 - Illusion (00:04:09)
[+] Отчёт auCDtect Task manager: foobar2000 1.6.11 / Dynamic Range Meter 1.1.1 log date: 2024-02-01 12:51:30 -------------------------------------------------------------------------------- Analyzed: The Great Alone / Perception -------------------------------------------------------------------------------- DR Peak RMS Duration Track -------------------------------------------------------------------------------- DR6 -0.12 dB -8.28 dB 2:03 01-The Call DR5 -0.12 dB -6.44 dB 4:27 02-Beyond Dreams DR5 -0.12 dB -6.84 dB 4:26 03-Mania DR5 -0.12 dB -6.89 dB 3:41 04-Stars And Storms DR5 -0.12 dB -7.00 dB 3:53 05-Prism DR5 -0.12 dB -6.54 dB 4:33 06-Cell DR5 -0.12 dB -6.67 dB 4:32 07-Quiet Place DR5 -0.12 dB -6.58 dB 5:08 08-Horizon DR5 -0.12 dB -7.09 dB 5:05 09-Icons DR5 -0.12 dB -7.03 dB 4:10 10-Reverie DR5 -0.12 dB -7.30 dB 4:09 11-Illusion -------------------------------------------------------------------------------- Number of tracks: 11 Official DR value: DR5 Samplerate: 44100 Hz Channels: 2 Bits per sample: 24 Bitrate: 1668 kbps Codec: FLAC ================================================================================

Всего файлов в раздаче: 12 
01 - The Call.flac22.98 MB
02 - Beyond Dreams.flac52.76 MB
03 - Mania.flac52.84 MB
04 - Stars And Storms.flac44.17 MB
05 - Prism.flac46.67 MB
06 - Cell.flac54.44 MB
07 - Quiet Place.flac54.72 MB
08 - Horizon.flac62.50 MB
09 - Icons.flac61.40 MB
10 - Reverie.flac48.58 MB
Показать все файлы

Комментарии


Зарегистрируйтесь чтобы добавить комментарий
Торрент клиент
byTorrent - программа для загрузки торрент-файлов.

Скачать byTorrent.exe (1,5 МБ)

Скачать byTorrent.zip (0,6 МБ)

Поддержи torrent.by
российских рублей
(300 российских рублей это 4$)

Обратная связь rss

End game ©