↑↓torrent.by
Поиск
Логин:  Регистрация
Пароль:

Заклятие. Зло внутри / It Lives Inside (2023) BDRip 720p от DoMiNo & селезень | D

download Скачать торрент-файл   magnet Магнитная ссылка Размер: 2.43 GB Добавлен: 2024-02-05 11:00
Пиры будут получены из сети DHT
Последний сидер был замечен 2024-02-10 11:32
Информация о фильме Название: Заклятие. Зло внутри Оригинальное название: It Lives Inside Год выхода: 2023 Жанр: Ужасы Режиссер: Бишал Дутта В ролях: Меган Сури, Ниру Баджва, Мохана Кришнан, Бетти Гэбриел, Вик Сахай, Гейдж Марш, Дженайа Росс, Беатрис Китсос, Сангита Вайли, Джаред Аджер-Фостер О фильме: Самида, старшеклассница индийского происхождения, не особо интересуется своей национальной культурой и стремится не выделяться среди одноклассников. Её подруга Тамира, наоборот, привлекает всеобщее внимание, когда начинает очень странно себя вести и всюду ходить с какой-то грязной банкой. Не поверив подруге, что там сидит нечто злобное, девушка разбивает банку, и после этого Тамира загадочным образом пропадает. Теперь Самиде начинает мерещиться и сниться всякая жуть, и, чтобы понять, что происходит и куда делась Тамира, ей придется поглубже копнуть индуистскую мифологию. Страна: США, Канада Студия: Brightlight Pictures Inc., Neon, QC Entertainment Продолжительность: 01:39:14 Перевод: Профессиональный (полное дублирование) | Paragraph Media Субтитры: Русские (Forced (от admiralkz), Full (от stirloo)), Английские, Французские Файл Формат: Matroska Качество: BDRip 720p Видео: 1280x534 at 23.976 fps, x264@L4.1, ~2799 kbps Аудио 1: AC3, 6 ch, ~256 kbps - | Русский | Аудио 2: AC3, 6 ch, ~448 kbps - | Английский | Формат субтитров: softsub (SRT) ***Рип от: -=DoMiNo=-
[+] M/Ix264 : frame I:1019 Avg QP:10.20 size: 82125 x264 : frame P:26997 Avg QP:11.85 size: 36342 x264 : frame B:114747 Avg QP:13.72 size: 8877 General Unique ID : 57219656147704052078710584363231247439 (0x2B0C1ADBEBFB741E73999C7ADA507C4F) Complete name : O:It.Lives.Inside.2023.DUB.BDRip.720p.x264.seleZen.mkv Format : Matroska Format version : Version 4 File size : 2.43 GiB Duration : 1 h 39 min Overall bit rate : 3 505 kb/s Frame rate : 23.976 FPS Movie name : It.Lives.Inside.2023.DUB.BDRip.720p.x264.seleZen Encoded date : 2024-02-04 18:58:45 UTC Writing application : mkvmerge v82.0 ('I'm The President') 64-bit Writing library : libebml v1.4.5 + libmatroska v1.7.1 Cover : Yes Attachments : cover.jpg / small_cover.jpg Video ID : 1 Format : AVC Format/Info : Advanced Video Codec Format profile : High@L4.1 Format settings : CABAC / 12 Ref Frames Format settings, CABAC : Yes Format settings, Reference : 12 frames Codec ID : V_MPEG4/ISO/AVC Duration : 1 h 39 min Bit rate : 2 799 kb/s Width : 1 280 pixels Height : 534 pixels Display aspect ratio : 2.40:1 Frame rate mode : Constant Frame rate : 23.976 (24000/1001) FPS Color space : YUV Chroma subsampling : 4:2:0 Bit depth : 8 bits Scan type : Progressive Bits/(Pixel*Frame) : 0.171 Stream size : 1.94 GiB (80%) Title : -=DoMiNo=- Writing library : x264 core 164 r3173 -DoMiNo Encoding settings : cabac=1 / ref=12 / deblock=1:-2:-2 / analyse=0x3:0x133 / me=umh / subme=10 / psy=1 / psy_rd=1.04:0.03 / mixed_ref=1 / me_range=32 / chroma_me=1 / trellis=2 / 8x8dct=1 / cqm=0 / deadzone=21,11 / fast_pskip=0 / chroma_qp_offset=-3 / threads=17 / lookahead_threads=2 / sliced_threads=0 / nr=0 / decimate=0 / interlaced=0 / bluray_compat=0 / constrained_intra=0 / bframes=9 / b_pyramid=2 / b_adapt=2 / b_bias=0 / direct=1 / weightb=1 / open_gop=0 / weightp=2 / keyint=250 / keyint_min=23 / scenecut=40 / intra_refresh=0 / rc_lookahead=60 / rc=crf / mbtree=0 / crf=16.0 / qcomp=0.60 / qpmin=0 / qpmax=69 / qpstep=4 / vbv_maxrate=50000 / vbv_bufsize=62500 / crf_max=0.0 / nal_hrd=none / filler=0 / ip_ratio=1.35 / pb_ratio=1.30 / aq=3:0.80 Language : English Default : Yes Forced : No Color range : Limited Color primaries : BT.709 Transfer characteristics : BT.709 Matrix coefficients : BT.709 Audio #1 ID : 2 Format : AC-3 Format/Info : Audio Coding 3 Commercial name : Dolby Digital Codec ID : A_AC3 Duration : 1 h 39 min Bit rate mode : Constant Bit rate : 256 kb/s Channel(s) : 6 channels Channel layout : L R C LFE Ls Rs Sampling rate : 48.0 kHz Frame rate : 31.250 FPS (1536 SPF) Compression mode : Lossy Stream size : 182 MiB (7%) Title : DUB - Paragraph Media Language : Russian Service kind : Complete Main Default : Yes Forced : No Audio #2 ID : 3 Format : AC-3 Format/Info : Audio Coding 3 Commercial name : Dolby Digital Codec ID : A_AC3 Duration : 1 h 39 min Bit rate mode : Constant Bit rate : 448 kb/s Channel(s) : 6 channels Channel layout : L R C LFE Ls Rs Sampling rate : 48.0 kHz Frame rate : 31.250 FPS (1536 SPF) Compression mode : Lossy Stream size : 318 MiB (13%) Title : Original Language : English Service kind : Complete Main Default : No Forced : No Text #1 ID : 4 Format : UTF-8 Codec ID : S_TEXT/UTF8 Codec ID/Info : UTF-8 Plain Text Duration : 1 h 27 min Bit rate : 1 b/s Frame rate : 0.003 FPS Count of elements : 18 Stream size : 1.05 KiB (0%) Title : Forced Language : Russian Default : No Forced : No Text #2 ID : 5 Format : UTF-8 Codec ID : S_TEXT/UTF8 Codec ID/Info : UTF-8 Plain Text Duration : 1 h 31 min Bit rate : 43 b/s Frame rate : 0.103 FPS Count of elements : 567 Stream size : 29.1 KiB (0%) Title : Full - stirloo Language : Russian Default : No Forced : No Text #3 ID : 6 Format : UTF-8 Codec ID : S_TEXT/UTF8 Codec ID/Info : UTF-8 Plain Text Duration : 1 h 29 min Bit rate : 19 b/s Frame rate : 0.089 FPS Count of elements : 478 Stream size : 13.1 KiB (0%) Title : Full Language : English Default : No Forced : No Text #4 ID : 7 Format : UTF-8 Codec ID : S_TEXT/UTF8 Codec ID/Info : UTF-8 Plain Text Duration : 1 h 38 min Bit rate : 27 b/s Frame rate : 0.132 FPS Count of elements : 778 Stream size : 19.5 KiB (0%) Title : SDH Language : English Default : No Forced : No Text #5 ID : 8 Format : ASS Codec ID : S_TEXT/ASS Codec ID/Info : Advanced Sub Station Alpha Duration : 1 h 38 min Bit rate : 68 b/s Frame rate : 0.178 FPS Count of elements : 1055 Compression mode : Lossless Stream size : 49.6 KiB (0%) Language : French Default : No Forced : No Menu 00:00:00.000 : en:Chapter 1 00:02:07.002 : en:Chapter 2 00:08:48.528 : en:Chapter 3 00:18:07.420 : en:Chapter 4 00:27:54.339 : en:Chapter 5 00:39:59.022 : en:Chapter 6 00:47:37.271 : en:Chapter 7 00:59:10.046 : en:Chapter 8 01:06:35.158 : en:Chapter 9 01:14:03.022 : en:Chapter 10 01:29:16.476 : en:Chapter 11 01:33:55.213 : en:Chapter 12
Релиз: Присоединяйся к: Кликай на баннеры.

Всего файлов в раздаче: 1 
It.Lives.Inside.2023.DUB.BDRip.720p.x264.seleZen.mkv2.43 GB

Похожие раздачи по запросу - Заклятие
2024-02-06 magnet Заклятие. Зло внутри / It Lives Inside (2023) HDRip от toxics | D 745.21 MB ↑ 0 ↓ 0
2024-02-05 magnet Заклятие. Зло внутри / It Lives Inside (2023) BDRip от MegaPeer | D 1.46 GB ↑ 0 ↓ 0
2024-02-05 magnet Заклятие. Зло внутри / It Lives Inside (2023) BDRip 1080p от MegaPeer | D 6.18 GB ↑ 0 ↓ 0
2024-02-05 magnet Заклятие. Зло внутри / It Lives Inside (2023) HDRip-AVC от New-Team | D 2.05 GB ↑ 0 ↓ 0
2024-02-04 magnet Заклятие. Зло внутри / It Lives Inside (2023) WEB-DL 1080p | D 2.79 GB ↑ 0 ↓ 0

Комментарии


Зарегистрируйтесь чтобы добавить комментарий
Торрент клиент
byTorrent - программа для загрузки торрент-файлов.

Скачать byTorrent.exe (1,5 МБ)

Скачать byTorrent.zip (0,6 МБ)

Поддержи torrent.by
российских рублей
(300 российских рублей это 4$)

Обратная связь rss

End game ©