↑↓torrent.by
Поиск
Логин:  Регистрация
Пароль:

Грисельда / Griselda [S01] (2024) WEB-DL 1080p | P | Red Head Sound

download Скачать торрент-файл   magnet Магнитная ссылка Размер: 18.97 GB Добавлен: 2024-02-05 11:00
Пиры будут получены из сети DHT
Последний сидер был замечен 2024-02-14 12:14
Название: Грисельда Оригинальное название: Griselda Год выхода: 2024 Производство: США / Grand Electric, Latin World Entertainment, Netflix Жанр: Криминал, биография, драма Перевод: Профессиональный многоголосый Продолжительность: 6х ~ 00:52:00 Режиссёр: Андрес Байс В ролях: София Вергара, Альберто Герра, Мартин Родригес, Орландо Пинеда, Мартин Фахардо, Ванесса Ферлито, Фреди Йэт, Кристиан Таппан, Жульет Рестрепо, Хосе Суньига, Гэбриэл Слойер, Диего Трухильо Описание: Сбежавшая из Медельина в Майами с тремя маленькими сыновьями и килограммом кокаина Грисельда Бланко становится безжалостным боссом процветающей наркоимперии. Преданная мать, смертоносная смесь обаяния и неожиданной жестокости Бланко помогла ей умело выбирать между семьей и бизнесом, благодаря чему она стала широко известна как «Крестная мать». Формат: MKV Качество: WEB-DL 1080p Видео: MPEG-4/AVC, 7007 Кбит/с, 1920x1080, 0.141 бит/(Пиксели*Кадры), 23.976 fps Аудио 1: AC3, 2 ch, 48.0 kHz, 192 Kbps - Русский MVO (Red Head Sound) Аудио 2: E-AC3 Atmos, 6 ch, 48.0 kHz, 768 kbps - Английский Субтитры: Русские, английские и другие
[+] MediainfoGeneral Unique ID : 217590246283304316459803918054788751592 (0xA3B25B6A67ABD15E80298DCB3A00E0E8) Complete name : E:DownloadGriselda.S01.1080p.RHSGriselda.S01E01.Lady.Comes.to.Town.1080p.NF.WEB-DL.DDP5.1.Atmos.H.264.Rus.Eng.mkv Format : Matroska Format version : Version 4 File size : 2.89 GiB Duration : 51 min 55 s Overall bit rate mode : Variable Overall bit rate : 7 972 kb/s Frame rate : 23.976 FPS Encoded date : 2024-02-03 17:07:23 UTC Writing application : mkvmerge v9.1.0 ('Little Earthquakes') 32bit Writing library : libebml v1.3.3 + libmatroska v1.4.4 Video ID : 1 Format : AVC Format/Info : Advanced Video Codec Format profile : High@L4 Format settings : CABAC / 4 Ref Frames Format settings, CABAC : Yes Format settings, Reference fra : 4 frames Codec ID : V_MPEG4/ISO/AVC Duration : 51 min 55 s Bit rate mode : Variable Bit rate : 7 007 kb/s Maximum bit rate : 20.0 Mb/s Width : 1 920 pixels Height : 1 080 pixels Display aspect ratio : 16:9 Frame rate mode : Constant Frame rate : 23.976 (24000/1001) FPS Color space : YUV Chroma subsampling : 4:2:0 Bit depth : 8 bits Scan type : Progressive Bits/(Pixel*Frame) : 0.141 Stream size : 2.54 GiB (88%) Writing library : x264 core 148 r2727 7d026e8 Encoding settings : cabac=1 / ref=4 / deblock=1:0:0 / analyse=0x3:0x111 / me=umh / subme=10 / psy=1 / psy_rd=1.00:0.00 / mixed_ref=1 / me_range=120 / chroma_me=1 / trellis=2 / 8x8dct=1 / cqm=0 / deadzone=21,11 / fast_pskip=1 / chroma_qp_offset=-2 / threads=6 / lookahead_threads=1 / sliced_threads=0 / nr=0 / decimate=1 / interlaced=0 / bluray_compat=0 / stitchable=1 / constrained_intra=0 / bframes=16 / b_pyramid=2 / b_adapt=2 / b_bias=0 / direct=3 / weightb=1 / open_gop=0 / weightp=2 / keyint=240 / keyint_min=121 / scenecut=0 / intra_refresh=0 / rc_lookahead=240 / rc=crf / mbtree=1 / crf=16.0 / qcomp=0.50 / qpmin=6 / qpmax=51 / qpstep=4 / vbv_maxrate=20000 / vbv_bufsize=25000 / crf_max=0.0 / nal_hrd=vbr / filler=0 / ip_ratio=1.40 / aq=1:0.80 Language : English Default : Yes Forced : No Audio #1 ID : 2 Format : AC-3 Format/Info : Audio Coding 3 Commercial name : Dolby Digital Codec ID : A_AC3 Duration : 51 min 55 s Bit rate mode : Constant Bit rate : 192 kb/s Channel(s) : 2 channels Channel layout : L R Sampling rate : 48.0 kHz Frame rate : 31.250 FPS (1536 SPF) Compression mode : Lossy Delay relative to video : 20 ms Stream size : 71.3 MiB (2%) Title : MVO Red Head Sound Language : Russian Service kind : Complete Main Default : Yes Forced : No Audio #2 ID : 3 Format : E-AC-3 JOC Format/Info : Enhanced AC-3 with Joint Object Coding Commercial name : Dolby Digital Plus with Dolby Atmos Codec ID : A_EAC3 Duration : 51 min 55 s Bit rate mode : Constant Bit rate : 768 kb/s Channel(s) : 6 channels Channel layout : L R C LFE Ls Rs Sampling rate : 48.0 kHz Frame rate : 31.250 FPS (1536 SPF) Compression mode : Lossy Stream size : 285 MiB (10%) Language : English Service kind : Complete Main Default : No Forced : No Complexity index : 16 Number of dynamic objects : 15 Bed channel count : 1 channel Bed channel configuration : LFE Text #1 ID : 4 Format : UTF-8 Codec ID : S_TEXT/UTF8 Codec ID/Info : UTF-8 Plain Text Duration : 42 min 16 s Bit rate : 16 b/s Frame rate : 0.070 FPS Count of elements : 177 Stream size : 5.23 KiB (0%) Title : Forced Language : English Default : No Forced : Yes Text #2 ID : 5 Format : UTF-8 Codec ID : S_TEXT/UTF8 Codec ID/Info : UTF-8 Plain Text Duration : 47 min 59 s Bit rate : 47 b/s Frame rate : 0.192 FPS Count of elements : 552 Stream size : 16.8 KiB (0%) Language : English Default : No Forced : No Text #3 ID : 6 Format : UTF-8 Codec ID : S_TEXT/UTF8 Codec ID/Info : UTF-8 Plain Text Duration : 50 min 5 s Bit rate : 54 b/s Frame rate : 0.225 FPS Count of elements : 675 Stream size : 20.1 KiB (0%) Title : SDH Language : English Default : No Forced : No Text #4 ID : 7 Format : UTF-8 Codec ID : S_TEXT/UTF8 Codec ID/Info : UTF-8 Plain Text Duration : 49 min 50 s Bit rate : 65 b/s Frame rate : 0.172 FPS Count of elements : 513 Stream size : 24.1 KiB (0%) Language : Arabic Default : No Forced : No Text #5 ID : 8 Format : UTF-8 Codec ID : S_TEXT/UTF8 Codec ID/Info : UTF-8 Plain Text Duration : 49 min 50 s Bit rate : 24 b/s Frame rate : 0.111 FPS Count of elements : 333 Stream size : 8.85 KiB (0%) Language : Catalan Default : No Forced : No Text #6 ID : 9 Format : UTF-8 Codec ID : S_TEXT/UTF8 Codec ID/Info : UTF-8 Plain Text Duration : 49 min 50 s Bit rate : 37 b/s Frame rate : 0.170 FPS Count of elements : 508 Stream size : 13.6 KiB (0%) Language : Czech Default : No Forced : No Text #7 ID : 10 Format : UTF-8 Codec ID : S_TEXT/UTF8 Codec ID/Info : UTF-8 Plain Text Duration : 49 min 50 s Bit rate : 38 b/s Frame rate : 0.170 FPS Count of elements : 508 Stream size : 14.0 KiB (0%) Language : Danish Default : No Forced : No Text #8 ID : 11 Format : UTF-8 Codec ID : S_TEXT/UTF8 Codec ID/Info : UTF-8 Plain Text Duration : 49 min 50 s Bit rate : 39 b/s Frame rate : 0.170 FPS Count of elements : 509 Stream size : 14.5 KiB (0%) Language : German Default : No Forced : No Text #9 ID : 12 Format : UTF-8 Codec ID : S_TEXT/UTF8 Codec ID/Info : UTF-8 Plain Text Duration : 49 min 50 s Bit rate : 65 b/s Frame rate : 0.171 FPS Count of elements : 511 Stream size : 23.9 KiB (0%) Language : Greek Default : No Forced : No Text #10 ID : 13 Format : UTF-8 Codec ID : S_TEXT/UTF8 Codec ID/Info : UTF-8 Plain Text Duration : 49 min 50 s Bit rate : 24 b/s Frame rate : 0.110 FPS Count of elements : 330 Stream size : 8.84 KiB (0%) Title : Latin American Language : Spanish Default : No Forced : No Text #11 ID : 14 Format : UTF-8 Codec ID : S_TEXT/UTF8 Codec ID/Info : UTF-8 Plain Text Duration : 49 min 50 s Bit rate : 24 b/s Frame rate : 0.110 FPS Count of elements : 329 Stream size : 9.07 KiB (0%) Language : Spanish Default : No Forced : No Text #12 ID : 15 Format : UTF-8 Codec ID : S_TEXT/UTF8 Codec ID/Info : UTF-8 Plain Text Duration : 49 min 50 s Bit rate : 39 b/s Frame rate : 0.167 FPS Count of elements : 498 Stream size : 14.2 KiB (0%) Language : Basque Default : No Forced : No Text #13 ID : 16 Format : UTF-8 Codec ID : S_TEXT/UTF8 Codec ID/Info : UTF-8 Plain Text Duration : 49 min 50 s Bit rate : 36 b/s Frame rate : 0.170 FPS Count of elements : 507 Stream size : 13.2 KiB (0%) Language : Finnish Default : No Forced : No Text #14 ID : 17 Format : UTF-8 Codec ID : S_TEXT/UTF8 Codec ID/Info : UTF-8 Plain Text Duration : 49 min 50 s Bit rate : 37 b/s Frame rate : 0.170 FPS Count of elements : 508 Stream size : 13.7 KiB (0%) Language : Filipino Default : No Forced : No Text #15 ID : 18 Format : UTF-8 Codec ID : S_TEXT/UTF8 Codec ID/Info : UTF-8 Plain Text Duration : 49 min 50 s Bit rate : 39 b/s Frame rate : 0.170 FPS Count of elements : 509 Stream size : 14.6 KiB (0%) Language : French Default : No Forced : No Text #16 ID : 19 Format : UTF-8 Codec ID : S_TEXT/UTF8 Codec ID/Info : UTF-8 Plain Text Duration : 49 min 50 s Bit rate : 37 b/s Frame rate : 0.167 FPS Count of elements : 500 Stream size : 13.5 KiB (0%) Language : Galician Default : No Forced : No Text #17 ID : 20 Format : UTF-8 Codec ID : S_TEXT/UTF8 Codec ID/Info : UTF-8 Plain Text Duration : 49 min 50 s Bit rate : 65 b/s Frame rate : 0.172 FPS Count of elements : 513 Stream size : 23.8 KiB (0%) Language : Hebrew Default : No Forced : No Text #18 ID : 21 Format : UTF-8 Codec ID : S_TEXT/UTF8 Codec ID/Info : UTF-8 Plain Text Duration : 49 min 50 s Bit rate : 33 b/s Frame rate : 0.171 FPS Count of elements : 510 Stream size : 12.3 KiB (0%) Language : Croatian Default : No Forced : No Text #19 ID : 22 Format : UTF-8 Codec ID : S_TEXT/UTF8 Codec ID/Info : UTF-8 Plain Text Duration : 49 min 50 s Bit rate : 38 b/s Frame rate : 0.171 FPS Count of elements : 511 Stream size : 14.0 KiB (0%) Language : Hungarian Default : No Forced : No Text #20 ID : 23 Format : UTF-8 Codec ID : S_TEXT/UTF8 Codec ID/Info : UTF-8 Plain Text Duration : 49 min 50 s Bit rate : 39 b/s Frame rate : 0.171 FPS Count of elements : 510 Stream size : 14.5 KiB (0%) Language : Indonesian Default : No Forced : No Text #21 ID : 24 Format : UTF-8 Codec ID : S_TEXT/UTF8 Codec ID/Info : UTF-8 Plain Text Duration : 49 min 50 s Bit rate : 37 b/s Frame rate : 0.170 FPS Count of elements : 508 Stream size : 13.9 KiB (0%) Language : Italian Default : No Forced : No Text #22 ID : 25 Format : UTF-8 Codec ID : S_TEXT/UTF8 Codec ID/Info : UTF-8 Plain Text Duration : 49 min 50 s Bit rate : 37 b/s Frame rate : 0.168 FPS Count of elements : 502 Stream size : 13.8 KiB (0%) Language : Japanese Default : No Forced : No Text #23 ID : 26 Format : UTF-8 Codec ID : S_TEXT/UTF8 Codec ID/Info : UTF-8 Plain Text Duration : 49 min 50 s Bit rate : 45 b/s Frame rate : 0.171 FPS Count of elements : 512 Stream size : 16.7 KiB (0%) Language : Korean Default : No Forced : No Text #24 ID : 27 Format : UTF-8 Codec ID : S_TEXT/UTF8 Codec ID/Info : UTF-8 Plain Text Duration : 49 min 50 s Bit rate : 37 b/s Frame rate : 0.170 FPS Count of elements : 507 Stream size : 13.8 KiB (0%) Language : Malay Default : No Forced : No Text #25 ID : 28 Format : UTF-8 Codec ID : S_TEXT/UTF8 Codec ID/Info : UTF-8 Plain Text Duration : 49 min 50 s Bit rate : 37 b/s Frame rate : 0.169 FPS Count of elements : 506 Stream size : 13.7 KiB (0%) Language : Norwegian Bokmal Default : No Forced : No Text #26 ID : 29 Format : UTF-8 Codec ID : S_TEXT/UTF8 Codec ID/Info : UTF-8 Plain Text Duration : 49 min 50 s Bit rate : 34 b/s Frame rate : 0.161 FPS Count of elements : 483 Stream size : 12.7 KiB (0%) Language : Dutch Default : No Forced : No Text #27 ID : 30 Format : UTF-8 Codec ID : S_TEXT/UTF8 Codec ID/Info : UTF-8 Plain Text Duration : 49 min 50 s Bit rate : 35 b/s Frame rate : 0.171 FPS Count of elements : 511 Stream size : 12.9 KiB (0%) Language : Polish Default : No Forced : No Text #28 ID : 31 Format : UTF-8 Codec ID : S_TEXT/UTF8 Codec ID/Info : UTF-8 Plain Text Duration : 49 min 50 s Bit rate : 36 b/s Frame rate : 0.170 FPS Count of elements : 509 Stream size : 13.3 KiB (0%) Title : Brazilian Language : Portuguese Default : No Forced : No Text #29 ID : 32 Format : UTF-8 Codec ID : S_TEXT/UTF8 Codec ID/Info : UTF-8 Plain Text Duration : 49 min 50 s Bit rate : 39 b/s Frame rate : 0.169 FPS Count of elements : 505 Stream size : 14.4 KiB (0%) Language : Portuguese Default : No Forced : No Text #30 ID : 33 Format : UTF-8 Codec ID : S_TEXT/UTF8 Codec ID/Info : UTF-8 Plain Text Duration : 49 min 50 s Bit rate : 41 b/s Frame rate : 0.171 FPS Count of elements : 510 Stream size : 15.2 KiB (0%) Language : Romanian Default : No Forced : No Text #31 ID : 34 Format : UTF-8 Codec ID : S_TEXT/UTF8 Codec ID/Info : UTF-8 Plain Text Duration : 49 min 50 s Bit rate : 68 b/s Frame rate : 0.172 FPS Count of elements : 513 Stream size : 25.1 KiB (0%) Language : Russian Default : No Forced : No Text #32 ID : 35 Format : UTF-8 Codec ID : S_TEXT/UTF8 Codec ID/Info : UTF-8 Plain Text Duration : 49 min 50 s Bit rate : 36 b/s Frame rate : 0.170 FPS Count of elements : 508 Stream size : 13.5 KiB (0%) Language : Swedish Default : No Forced : No Text #33 ID : 36 Format : UTF-8 Codec ID : S_TEXT/UTF8 Codec ID/Info : UTF-8 Plain Text Duration : 49 min 50 s Bit rate : 94 b/s Frame rate : 0.172 FPS Count of elements : 513 Stream size : 34.5 KiB (0%) Language : Thai Default : No Forced : No Text #34 ID : 37 Format : UTF-8 Codec ID : S_TEXT/UTF8 Codec ID/Info : UTF-8 Plain Text Duration : 49 min 50 s Bit rate : 40 b/s Frame rate : 0.171 FPS Count of elements : 510 Stream size : 14.8 KiB (0%) Language : Turkish Default : No Forced : No Text #35 ID : 38 Format : UTF-8 Codec ID : S_TEXT/UTF8 Codec ID/Info : UTF-8 Plain Text Duration : 49 min 50 s Bit rate : 67 b/s Frame rate : 0.172 FPS Count of elements : 513 Stream size : 24.8 KiB (0%) Language : Ukrainian Default : No Forced : No Text #36 ID : 39 Format : UTF-8 Codec ID : S_TEXT/UTF8 Codec ID/Info : UTF-8 Plain Text Duration : 49 min 50 s Bit rate : 50 b/s Frame rate : 0.170 FPS Count of elements : 508 Stream size : 18.4 KiB (0%) Language : Vietnamese Default : No Forced : No Text #37 ID : 40 Format : UTF-8 Codec ID : S_TEXT/UTF8 Codec ID/Info : UTF-8 Plain Text Duration : 49 min 50 s Bit rate : 39 b/s Frame rate : 0.172 FPS Count of elements : 513 Stream size : 14.4 KiB (0%) Title : Simplified Language : Chinese Default : No Forced : No Text #38 ID : 41 Format : UTF-8 Codec ID : S_TEXT/UTF8 Codec ID/Info : UTF-8 Plain Text Duration : 49 min 50 s Bit rate : 38 b/s Frame rate : 0.172 FPS Count of elements : 513 Stream size : 13.9 KiB (0%) Title : Traditional Language : Chinese Default : No Forced : No Menu 00:00:00.000 : en:Part 01 00:48:42.450 : en:Credits
[+] Скриншоты

Всего файлов в раздаче: 6 
Griselda.S01E01.Lady.Comes.to.Town.1080p.NF.WEB-DL.DDP5.1.Atmos.H.264.Rus.Eng.mkv2.89 GB
Griselda.S01E02.Rich.White.People.1080p.NF.WEB-DL.DDP5.1.Atmos.H.264.Rus.Eng.mkv3.18 GB
Griselda.S01E03.Mutiny.1080p.NF.WEB-DL.DDP5.1.Atmos.H.264.Rus.Eng.mkv3.33 GB
Griselda.S01E04.Middle.Management.1080p.NF.WEB-DL.DDP5.1.Atmos.H.264.Rus.Eng.mkv3.43 GB
Griselda.S01E05.Paradise.Lost.1080p.NF.WEB-DL.DDP5.1.Atmos.H.264.Rus.Eng.mkv3.24 GB
Griselda.S01E06.Adios.Miami.1080p.NF.WEB-DL.DDP5.1.Atmos.H.264.Rus.Eng.mkv2.90 GB

Похожие раздачи по запросу - Грисельда
2024-02-04 magnet Грисельда / Griselda [S01] (2024) WEB-DL 1080p от Jaskier | P | Jaskier 19.41 GB ↑ 0 ↓ 0
2024-01-29 magnet Грисельда / Griselda [S01] (2024) WEB-DLRip-AVC от DoMiNo & селезень | P | HDRezka Studio 4.79 GB ↑ 1 ↓ 0
2024-01-29 magnet Грисельда / Griselda [S01] (2024) WEB-DL 1080p | HDRezka Studio, ColdFilm 21.20 GB ↑ 0 ↓ 0
2024-01-28 magnet Грисельда / Griselda [S01] (2024) WEB-DL 720p | HDrezka Studio 9.21 GB ↑ 0 ↓ 0
2024-01-27 magnet Грисельда / Griselda [01x01-02 из 6] (2024) WEB-DLRip-AVC от DoMiNo & селезень | P | HDRezka Studio 1.52 GB ↑ 0 ↓ 0
2024-01-27 magnet Грисельда / Griselda [01x01 из 6] (2024) WEB-DLRip-AVC от DoMiNo & селезень | P | HDRezka Studio 736.02 MB ↑ 0 ↓ 0
2024-01-26 magnet Грисельда / Griselda [01x01 из 6] (2024) WEB-DL 1080p | P, L | HDRezka Studio, ColdFilm 3.24 GB ↑ 0 ↓ 0

Комментарии


Зарегистрируйтесь чтобы добавить комментарий
Торрент клиент
byTorrent - программа для загрузки торрент-файлов.

Скачать byTorrent.exe (1,5 МБ)

Скачать byTorrent.zip (0,6 МБ)

Поддержи torrent.by
российских рублей
(300 российских рублей это 4$)

Обратная связь rss

End game ©