↑↓torrent.by
Поиск
Логин:  Регистрация
Пароль:

Проклятие дома с призраками / The Creeping (2022) BDRip 1080p от селезень | D

download Скачать торрент-файл   magnet Магнитная ссылка Размер: 7.28 GB Добавлен: 2024-02-05 11:00
Пиры будут получены из сети DHT
Последний сидер был замечен 2024-02-09 08:03
Информация о фильме Название: Проклятие дома с призраками Оригинальное название: The Creeping Год выхода: 2022 Жанр: ужасы Режиссер: Джэми Хупер В ролях: Риэнн Стил, Софи Томпсон, Джонатан Ньяти, Дэвид Хорович, Джейн Лоу, Филлипа Пик, Талия Блэр, Питер Маккуин, Дениз Хоран, Полин Хупер О фильме: Анна возвращается в дом своего детства спустя много лет. Ее бабушка Люси страдает деменцией, в последнее время ей становится все хуже, и сиделка уже не справляется. Анна, недавно похоронившая отца, старается справиться с горем, ухаживая за бабушкой. Вскоре она понимает, что старый дом хранит мрачную тайну, связанную со смертью дедушки Анны, чей неупокоенный и злобный призрак до сих пор не покинул его стены. И, похоже, к этому имеют отношение все члены их семьи. Страна: Великобритания Студия: Cryptoscope Films Продолжительность: 01:34:32 Перевод: Дублированный | Студия MOYGOLOS Качество: BDRip 1080p Видео: MPEG-4 AVC, 1920x960, 10000 Kbit/s, 23.976 fps Аудио #01: 48 kHz, AC3, 5.1, 384 Kbps | Дублированный | RUS | Аудио #02: 48 kHz, AC3, 5.1, 640 Kbps | Оригинал | ENG | Субтитры: Русские (Full), английские
[+] MIGeneral Unique ID : 304765724778089452977383897939826467723 (0xE547BE5875E37A6214D9B8385D80638B) Complete name : H:VideoHThe.Creeping.2022.BDRip.1080p.seleZen.mkv Format : Matroska Format version : Version 4 File size : 7.28 GiB Duration : 1 h 34 min Overall bit rate : 11.0 Mb/s Frame rate : 23.976 FPS Movie name : The Creeping 2022 from seleZen Encoded date : 2024-02-04 23:23:50 UTC Writing application : mkvmerge v80.0 ('Roundabout') 64-bit Writing library : libebml v1.4.4 + libmatroska v1.7.1 Video ID : 1 Format : AVC Format/Info : Advanced Video Codec Format profile : High@L4.1 Format settings : CABAC / 4 Ref Frames Format settings, CABAC : Yes Format settings, Reference : 4 frames Codec ID : V_MPEG4/ISO/AVC Duration : 1 h 34 min Bit rate : 10 000 kb/s Width : 1 920 pixels Height : 960 pixels Display aspect ratio : 2.000 Frame rate mode : Constant Frame rate : 23.976 (24000/1001) FPS Color space : YUV Chroma subsampling : 4:2:0 Bit depth : 8 bits Scan type : Progressive Bits/(Pixel*Frame) : 0.226 Stream size : 6.60 GiB (91%) Writing library : x264 core 164 r3164 seleZen Encoding settings : cabac=1 / ref=4 / deblock=1:-2:-2 / analyse=0x3:0x133 / me=umh / subme=11 / psy=1 / psy_rd=1.03:0.05 / mixed_ref=1 / me_range=48 / chroma_me=1 / trellis=2 / 8x8dct=1 / cqm=0 / deadzone=21,11 / fast_pskip=0 / chroma_qp_offset=-3 / threads=30 / lookahead_threads=7 / sliced_threads=0 / nr=0 / decimate=0 / interlaced=0 / bluray_compat=0 / constrained_intra=0 / bframes=10 / b_pyramid=2 / b_adapt=2 / b_bias=0 / direct=3 / weightb=1 / open_gop=0 / weightp=2 / keyint=240 / keyint_min=23 / scenecut=40 / intra_refresh=0 / rc_lookahead=60 / rc=2pass / mbtree=0 / bitrate=10000 / ratetol=1.0 / qcomp=0.60 / qpmin=0 / qpmax=51 / qpstep=4 / cplxblur=20.0 / qblur=0.5 / vbv_maxrate=50000 / vbv_bufsize=62500 / nal_hrd=none / filler=0 / ip_ratio=1.40 / pb_ratio=1.30 / aq=3:0.80 Language : English Default : Yes Forced : No Audio #1 ID : 2 Format : AC-3 Format/Info : Audio Coding 3 Commercial name : Dolby Digital Codec ID : A_AC3 Duration : 1 h 34 min Bit rate mode : Constant Bit rate : 384 kb/s Channel(s) : 6 channels Channel layout : L R C LFE Ls Rs Sampling rate : 48.0 kHz Frame rate : 31.250 FPS (1536 SPF) Compression mode : Lossy Stream size : 260 MiB (3%) Title : Dub Language : Russian Service kind : Complete Main Default : Yes Forced : No Audio #2 ID : 3 Format : AC-3 Format/Info : Audio Coding 3 Commercial name : Dolby Digital Codec ID : A_AC3 Duration : 1 h 34 min Bit rate mode : Constant Bit rate : 640 kb/s Channel(s) : 6 channels Channel layout : L R C LFE Ls Rs Sampling rate : 48.0 kHz Frame rate : 31.250 FPS (1536 SPF) Compression mode : Lossy Stream size : 433 MiB (6%) Title : Original Language : English Service kind : Complete Main Default : No Forced : No Text #1 ID : 4 Format : UTF-8 Codec ID : S_TEXT/UTF8 Codec ID/Info : UTF-8 Plain Text Duration : 26 min 15 s Bit rate : 3 b/s Frame rate : 0.009 FPS Count of elements : 14 Stream size : 611 Bytes (0%) Title : Forced Language : Russian Default : Yes Forced : No Text #2 ID : 5 Format : UTF-8 Codec ID : S_TEXT/UTF8 Codec ID/Info : UTF-8 Plain Text Duration : 1 h 32 min Bit rate : 37 b/s Frame rate : 0.133 FPS Count of elements : 740 Stream size : 25.6 KiB (0%) Title : Full Language : Russian Default : No Forced : No Text #3 ID : 6 Format : UTF-8 Codec ID : S_TEXT/UTF8 Codec ID/Info : UTF-8 Plain Text Duration : 1 h 32 min Bit rate : 28 b/s Frame rate : 0.129 FPS Count of elements : 714 Stream size : 19.2 KiB (0%) Title : Full Language : English Default : No Forced : No Menu 00:00:00.000 : en:Kapitel 01 00:13:19.799 : en:Kapitel 02 00:25:54.553 : en:Kapitel 03 00:40:16.414 : en:Kapitel 04 00:54:24.261 : en:Kapitel 05 01:11:45.301 : en:Kapitel 06 01:31:24.479 : en:Kapitel 07
Релиз: Присоединяйся к: Кликай на баннеры.

Всего файлов в раздаче: 1 
The.Creeping.2022.BDRip.1080p.seleZen.mkv7.28 GB

Похожие раздачи по запросу - Проклятие
2024-02-05 magnet Проклятие дома с призраками / The Creeping (2022) BDRip от MegaPeer | D 1.46 GB ↑ 0 ↓ 0
2024-02-05 magnet Проклятие дома с призраками / The Creeping (2022) BDRip-AVC от DoMiNo & селезень | D 1.54 GB ↑ 0 ↓ 0
2024-02-05 magnet Проклятие дома с призраками / The Creeping (2022) HDRip-AVC от New-Team | D 2.05 GB ↑ 0 ↓ 0
2024-02-05 magnet Проклятие дома с призраками / The Creeping (2022) BDRip 720p от селезень | D 3.65 GB ↑ 0 ↓ 0
2024-02-05 magnet Проклятие дома с призраками / The Creeping (2022) WEB-DL 1080p от селезень | D | Локализованная версия 3.86 GB ↑ 0 ↓ 0
2024-01-29 magnet Другие: Проклятие кукушки / The Cuckoo's Curse / El Cuco (2023) BDRip 720p от DoMiNo & селезень | D 2.62 GB ↑ 0 ↓ 0
2024-01-27 magnet Другие: Проклятие кукушки / The Cuckoo's Curse / El Cuco (2023) BDRip 1080p от ExKinoRay | D 9.77 GB ↑ 0 ↓ 0

Комментарии


Зарегистрируйтесь чтобы добавить комментарий
Торрент клиент
byTorrent - программа для загрузки торрент-файлов.

Скачать byTorrent.exe (1,5 МБ)

Скачать byTorrent.zip (0,6 МБ)

Поддержи torrent.by
российских рублей
(300 российских рублей это 4$)

Обратная связь rss

End game ©