↑↓torrent.by
Поиск
Логин:  Регистрация
Пароль:

Гнездо пауков / Il nido del ragno / The Spider Labyrinth (1988) BDRemux 1080p | A

download Скачать торрент-файл   magnet Магнитная ссылка Размер: 24.62 GB Добавлен: 2024-02-05 17:00
Пиры будут получены из сети DHT
Последний сидер был замечен 2024-02-06 17:33
Информация о фильме Название: Гнездо пауков Оригинальное название: Il nido del ragno / The Spider Labyrinth Год выхода: 1988 Жанр: ужасы, триллер, детектив Режиссер: Джанфранко Джаньи В ролях: Роланд Уайбенга, Паола Ринальди, Маргарета фон Краусс, Клаудия Муци, Вильям Бергер, Стефан Одран, Валериано Сантинелли, Массимилиано Павоне, Арнальдо Дэлль’Акква, Ласло Сайпос О фильме: Алан Уитмор, молодой американский учёный, отправляется в Будапешт, чтобы встретиться с профессором Ротом, его коллегой по научной работе. Прибыв в венгерскую столицу, Алан встречается с профессором, который вручает ему чёрную книгу, которая, по его словам, содержит в себе невероятно важную информацию. Встревоженный Алан, пытается встретиться с профессором ещё раз, но уже слишком поздно, профессор был убит. Алан начинает собственное опасное расследование, результат которого он и не мог предвидеть… Страна: Италия Продолжительность: 01:26:35 Перевод: Авторский (одноголосый закадровый) Вячеслав Котов Файл Качество: BDRemux 1080p Видео: MPEG-4 AVC, 37 Мбит/с, 1920x1080, 23.976 кадр/с Аудио 1: Russian; AC3; 48.0 KHz; 2ch; 192 Kbps || AVO Вячеслав Котов Аудио 2: English; DTS-HD MA; 48.0 KHz; 2ch; 1995 Kbps || Original Аудио 3: Italian; DTS-HD MA; 48.0 KHz; 2ch; 1873 Kbps || Italian Аудио 4: English; AC3; 48.0 KHz; 2ch; 256 Kbps || Commentary by Dr. Will Dodson, Professor of Rhetoric and Media Studies, and Ryan Verrill, host of The Disc Connected Субтитры: Английские (SDH)
[+] Скриншоты
[+] MediaInfoGeneral Unique ID : 291405053874547170416551736668971625139 (0xDB3A92695E03F58384843A19EF5C6AB3) Complete name : H:Гнездо пауков.1988.BDRemux.1080p.R.G. Goldenshara.mkv Format : Matroska Format version : Version 4 File size : 24.6 GiB Duration : 1 h 26 min Overall bit rate mode : Variable Overall bit rate : 40.7 Mb/s Movie name : Il.Nido.Del.Ragno.1988 Encoded date : UTC 2024-02-01 23:23:46 Writing application : mkvmerge v56.0.0 ('Strasbourg / St. Denis') 64-bit Writing library : libebml v1.4.2 + libmatroska v1.6.4 Cover : Yes Attachments : cover.jpg Video ID : 1 ID in the original source m : 4113 (0x1011) Format : AVC Format/Info : Advanced Video Codec Format profile : High@L4.1 Format settings : CABAC / 4 Ref Frames Format settings, CABAC : Yes Format settings, Reference : 4 frames Codec ID : V_MPEG4/ISO/AVC Duration : 1 h 26 min Bit rate mode : Constant Bit rate : 37.0 Mb/s Width : 1 920 pixels Height : 1 080 pixels Display aspect ratio : 16:9 Frame rate mode : Constant Frame rate : 23.976 (24000/1001) FPS Color space : YUV Chroma subsampling : 4:2:0 Bit depth : 8 bits Scan type : Progressive Bits/(Pixel*Frame) : 0.744 Stream size : 22.0 GiB (89%) Language : Italian Default : Yes Forced : No Color range : Limited Color primaries : BT.709 Transfer characteristics : BT.709 Matrix coefficients : BT.709 Original source medium : Blu-ray Audio #1 ID : 2 Format : AC-3 Format/Info : Audio Coding 3 Commercial name : Dolby Digital Codec ID : A_AC3 Duration : 1 h 26 min Bit rate mode : Constant Bit rate : 192 kb/s Channel(s) : 2 channels Channel layout : L R Sampling rate : 48.0 kHz Frame rate : 31.250 FPS (1536 SPF) Compression mode : Lossy Stream size : 119 MiB (0%) Title : AVO Вячеслав Котов Language : Russian Service kind : Complete Main Default : Yes Forced : No Audio #2 ID : 3 ID in the original source m : 4352 (0x1100) Format : DTS XLL Format/Info : Digital Theater Systems Commercial name : DTS-HD Master Audio Codec ID : A_DTS Duration : 1 h 26 min Bit rate mode : Variable Bit rate : 1 995 kb/s Channel(s) : 2 channels Channel layout : L R Sampling rate : 48.0 kHz Frame rate : 93.750 FPS (512 SPF) Bit depth : 24 bits Compression mode : Lossless Stream size : 1.21 GiB (5%) Language : English Default : No Forced : No Original source medium : Blu-ray Audio #3 ID : 4 ID in the original source m : 4353 (0x1101) Format : DTS XLL Format/Info : Digital Theater Systems Commercial name : DTS-HD Master Audio Codec ID : A_DTS Duration : 1 h 26 min Bit rate mode : Variable Bit rate : 1 873 kb/s Channel(s) : 2 channels Channel layout : L R Sampling rate : 48.0 kHz Frame rate : 93.750 FPS (512 SPF) Bit depth : 24 bits Compression mode : Lossless Stream size : 1.13 GiB (5%) Language : Italian Default : No Forced : No Original source medium : Blu-ray Audio #4 ID : 5 ID in the original source m : 4354 (0x1102) Format : AC-3 Format/Info : Audio Coding 3 Commercial name : Dolby Digital Codec ID : A_AC3 Duration : 1 h 26 min Bit rate mode : Constant Bit rate : 256 kb/s Channel(s) : 2 channels Channel layout : L R Sampling rate : 48.0 kHz Frame rate : 31.250 FPS (1536 SPF) Compression mode : Lossy Stream size : 159 MiB (1%) Title : Commentary by Dr. Will Dodson, Professor of Rhetoric and Media Studies, and Ryan Verrill, host of The Disc Connected Language : English Service kind : Complete Main Default : No Forced : No Original source medium : Blu-ray Text ID : 6 Format : UTF-8 Codec ID : S_TEXT/UTF8 Codec ID/Info : UTF-8 Plain Text Duration : 1 h 25 min Bit rate : 43 b/s Count of elements : 1112 Stream size : 27.6 KiB (0%) Title : SDH Language : English Default : No Forced : No Menu 00:00:00.000 : Глава 01 00:07:58.686 : Глава 02 00:16:46.422 : Глава 03 00:21:57.774 : Глава 04 00:27:49.250 : Глава 05 00:35:51.357 : Глава 06 00:44:37.883 : Глава 07 00:52:16.633 : Глава 08 00:58:42.268 : Глава 09 01:06:35.491 : Глава 10 01:13:54.805 : Глава 11 01:21:42.355 : Глава 12

Всего файлов в раздаче: 1 
Гнездо пауков.1988.BDRemux.1080p.R.G. Goldenshara.mkv24.62 GB

Комментарии


Зарегистрируйтесь чтобы добавить комментарий
Торрент клиент
byTorrent - программа для загрузки торрент-файлов.

Скачать byTorrent.exe (1,5 МБ)

Скачать byTorrent.zip (0,6 МБ)

Поддержи torrent.by
российских рублей
(300 российских рублей это 4$)

Обратная связь rss

End game ©