↑↓torrent.by
Поиск
Логин:  Регистрация
Пароль:

Война и мир (1965-1967) BDRemux 1080p | Criterion Collection

download Скачать торрент-файл   magnet Магнитная ссылка Размер: 73.17 GB Добавлен: 2024-02-05 17:00
Пиры будут получены из сети DHT
Последний сидер был замечен 2024-02-22 15:51
Название: Война и мир Год выхода: 1965-1967 Жанр: Драма, мелодрама, военный, история, экранизация Режиссер: Сергей Бондарчук В ролях: Сергей Бондарчук, Людмила Савельева, Вячеслав Тихонов, Олег Табаков, Борис Захава, Анатолий Кторов, Анастасия Вертинская, Антонина Шуранова, Виктор Станицын, Ирина Скобцева и др. О фильме: Советский художественный фильм 1965—1967 годов, киноэпопея в четырёх частях, экранизация одноимённого романа Льва Толстого, одна из самых высокобюджетных картин в истории кинематографа. Фильм стал известен благодаря масштабным батальным сценам и применению новаторской панорамной съёмки полей сражений. Одна из самых масштабных работ в творчестве Сергея Бондарчука — создание фильма заняло около 6 лет (1961—1967). Страна: СССР Студия: Мосфильм Продолжительность: 02:27:07, 01:45:02, 01:21:41, 01:36:38 Перевод: Оригинал Формат: MKV Видео: 1920x1080, 23.976 fps, MPEG-4 AVC, ~23432 kbps avg Аудио: Russian: 48 kHz, 24-bit, DTS-HD MA, 5.1 ch, ~3259 kbps avg Субтитры: Russian (forced, full), English (full)
[+] ИнфоGeneral Unique ID : 65101804231896493405372906653346801786 (0x30FA26C37C7F6E4649B9FD418271A87A) Complete name : War.and.Peace.Part.I.Andrei.Bolkonsky.1966.1080p.BDRemux.TeamHD.mkv Format : Matroska Format version : Version 4 / Version 2 File size : 24.3 GiB Duration : 2 h 27 min Overall bit rate mode : Variable Overall bit rate : 23.6 Mb/s Encoded date : UTC 2019-06-25 09:56:07 Writing application : mkvmerge v35.0.0 ('All The Love In The World') 64-bit Writing library : libebml v1.3.9 + libmatroska v1.5.2 Cover : Yes Attachments : cover.jpg Video ID : 1 Format : AVC Format/Info : Advanced Video Codec Format profile : High@L4.1 Format settings, CABAC : Yes Format settings, RefFrames : 4 frames Codec ID : V_MPEG4/ISO/AVC Duration : 2 h 27 min Bit rate mode : Variable Bit rate : 20.3 Mb/s Maximum bit rate : 37.0 Mb/s Width : 1 920 pixels Height : 1 080 pixels Display aspect ratio : 16:9 Frame rate mode : Constant Frame rate : 23.976 (24000/1001) FPS Color space : YUV Chroma subsampling : 4:2:0 Bit depth : 8 bits Scan type : Progressive Bits/(Pixel*Frame) : 0.409 Stream size : 20.9 GiB (86%) Title : BDRemux.1080p by Silverok Default : Yes Forced : No Audio ID : 2 Format : DTS Format/Info : Digital Theater Systems Format profile : MA / Core Mode : 16 Format settings, Endianness : Big Codec ID : A_DTS Duration : 2 h 27 min Bit rate mode : Variable / Constant Bit rate : 3 283 kb/s / 1 509 kb/s Channel(s) : 6 channels Channel positions : Front: L C R, Side: L R, LFE Sampling rate : 48.0 kHz Frame rate : 93.750 FPS (512 SPF) Bit depth : 24 bits Compression mode : Lossless / Lossy Stream size : 3.37 GiB (14%) Language : Russian Default : Yes Forced : No Text #1 ID : 3 Format : UTF-8 Codec ID : S_TEXT/UTF8 Codec ID/Info : UTF-8 Plain Text Duration : 1 h 26 min Bit rate : 2 b/s Count of elements : 17 Stream size : 1.47 KiB (0%) Title : Forced (На французскую речь) Language : Russian Default : Yes Forced : Yes Text #2 ID : 4 Format : UTF-8 Codec ID : S_TEXT/UTF8 Codec ID/Info : UTF-8 Plain Text Duration : 2 h 26 min Bit rate : 34 b/s Count of elements : 1083 Stream size : 37.5 KiB (0%) Title : Full Language : English Default : No Forced : No Text #3 ID : 5 Format : UTF-8 Codec ID : S_TEXT/UTF8 Codec ID/Info : UTF-8 Plain Text Duration : 2 h 23 min Bit rate : 50 b/s Count of elements : 661 Stream size : 53.4 KiB (0%) Title : Full Language : Russian Default : No Forced : No Menu 00:00:00.000 : :Chapter 01 00:02:56.176 : :Chapter 02 00:06:05.657 : :Chapter 03 00:10:06.189 : :Chapter 04 00:14:18.775 : :Chapter 05 00:16:31.741 : :Chapter 06 00:20:26.350 : :Chapter 07 00:27:19.638 : :Chapter 08 00:29:15.379 : :Chapter 09 00:42:51.569 : :Chapter 10 00:54:14.460 : :Chapter 11 00:57:27.110 : :Chapter 12 01:06:10.133 : :Chapter 13 01:21:55.828 : :Chapter 14 01:25:55.984 : :Chapter 15 01:32:16.406 : :Chapter 16 01:35:16.544 : :Chapter 17 01:42:06.120 : :Chapter 18 01:45:02.796 : :Chapter 19 01:53:39.730 : :Chapter 20 01:57:18.490 : :Chapter 21 02:04:31.255 : :Chapter 22 02:06:14.025 : :Chapter 23 02:14:52.501 : :Chapter 24 02:18:07.529 : :Chapter 25 02:21:49.668 : :Chapter 26 ---------------------------------------------------------------- General Unique ID : 226277163109065821051716724928688473824 (0xAA3B657B89766C07F7370F413130C6E0) Complete name : War.and.Peace.Part.II.Natasha.Rostova.1966.1080p.BDRemux.TeamHD.mkv Format : Matroska Format version : Version 4 / Version 2 File size : 15.4 GiB Duration : 1 h 38 min Overall bit rate mode : Variable Overall bit rate : 22.5 Mb/s Encoded date : UTC 2019-06-25 09:36:57 Writing application : mkvmerge v35.0.0 ('All The Love In The World') 64-bit Writing library : libebml v1.3.9 + libmatroska v1.5.2 Cover : Yes Attachments : cover.jpg Video ID : 1 Format : AVC Format/Info : Advanced Video Codec Format profile : High@L4.1 Format settings, CABAC : Yes Format settings, RefFrames : 4 frames Codec ID : V_MPEG4/ISO/AVC Duration : 1 h 38 min Bit rate mode : Variable Bit rate : 19.1 Mb/s Maximum bit rate : 37.0 Mb/s Width : 1 920 pixels Height : 1 080 pixels Display aspect ratio : 16:9 Frame rate mode : Constant Frame rate : 23.976 (24000/1001) FPS Color space : YUV Chroma subsampling : 4:2:0 Bit depth : 8 bits Scan type : Progressive Bits/(Pixel*Frame) : 0.384 Stream size : 13.1 GiB (85%) Title : BDRemux.1080p by Silverok Default : Yes Forced : No Audio ID : 2 Format : DTS Format/Info : Digital Theater Systems Format profile : MA / Core Mode : 16 Format settings, Endianness : Big Codec ID : A_DTS Duration : 1 h 38 min Bit rate mode : Variable / Constant Bit rate : 3 345 kb/s / 1 509 kb/s Channel(s) : 6 channels Channel positions : Front: L C R, Side: L R, LFE Sampling rate : 48.0 kHz Frame rate : 93.750 FPS (512 SPF) Bit depth : 24 bits Compression mode : Lossless / Lossy Stream size : 2.29 GiB (15%) Language : Russian Default : Yes Forced : No Text #1 ID : 3 Format : UTF-8 Codec ID : S_TEXT/UTF8 Codec ID/Info : UTF-8 Plain Text Duration : 15 s 534 ms Bit rate : 109 b/s Count of elements : 3 Stream size : 212 Bytes (0%) Title : Forced (На французскую речь) Language : Russian Default : Yes Forced : Yes Text #2 ID : 4 Format : UTF-8 Codec ID : S_TEXT/UTF8 Codec ID/Info : UTF-8 Plain Text Duration : 1 h 33 min Bit rate : 54 b/s Count of elements : 458 Stream size : 37.2 KiB (0%) Title : Full Language : Russian Default : No Forced : No Text #3 ID : 5 Format : UTF-8 Codec ID : S_TEXT/UTF8 Codec ID/Info : UTF-8 Plain Text Duration : 1 h 37 min Bit rate : 35 b/s Count of elements : 749 Stream size : 25.7 KiB (0%) Title : Full Language : English Default : No Forced : No Menu 00:00:00.000 : :Chapter 01 00:03:09.439 : :Chapter 02 00:07:44.673 : :Chapter 03 00:21:05.264 : :Chapter 04 00:25:00.207 : :Chapter 05 00:33:40.435 : :Chapter 06 00:35:49.314 : :Chapter 07 00:43:49.043 : :Chapter 08 00:55:26.949 : :Chapter 09 01:02:01.259 : :Chapter 10 01:03:53.997 : :Chapter 11 01:05:24.796 : :Chapter 12 01:09:20.198 : :Chapter 13 01:14:46.232 : :Chapter 14 01:19:31.141 : :Chapter 15 01:24:09.419 : :Chapter 16 01:27:43.925 : :Chapter 17 01:30:20.248 : :Chapter 18 01:31:48.086 : :Chapter 19 01:36:22.193 : :Chapter 20 ------------------------------------------------------------- General Unique ID : 266698248764616256990846286858051973271 (0xC8A436DF0F9F0824A956BA6B9CFCF097) Complete name : War.and.Peace.Part.III.The.Year.1812.1966.1080p.BDRemux.TeamHD.mkv Format : Matroska Format version : Version 4 / Version 2 File size : 15.5 GiB Duration : 1 h 21 min Overall bit rate mode : Variable Overall bit rate : 27.2 Mb/s Encoded date : UTC 2019-06-25 11:30:51 Writing application : mkvmerge v35.0.0 ('All The Love In The World') 64-bit Writing library : libebml v1.3.9 + libmatroska v1.5.2 Cover : Yes Attachments : cover.jpg Video ID : 1 Format : AVC Format/Info : Advanced Video Codec Format profile : High@L4.1 Format settings, CABAC : Yes Format settings, RefFrames : 4 frames Codec ID : V_MPEG4/ISO/AVC Duration : 1 h 21 min Bit rate mode : Variable Bit rate : 23.9 Mb/s Maximum bit rate : 37.0 Mb/s Width : 1 920 pixels Height : 1 080 pixels Display aspect ratio : 16:9 Frame rate mode : Constant Frame rate : 23.976 (24000/1001) FPS Color space : YUV Chroma subsampling : 4:2:0 Bit depth : 8 bits Scan type : Progressive Bits/(Pixel*Frame) : 0.481 Stream size : 13.6 GiB (88%) Title : BDRemux.1080p by Silverok Default : Yes Forced : No Audio ID : 2 Format : DTS Format/Info : Digital Theater Systems Format profile : MA / Core Mode : 16 Format settings, Endianness : Big Codec ID : A_DTS Duration : 1 h 21 min Bit rate mode : Variable / Constant Bit rate : 3 259 kb/s / 1 509 kb/s Channel(s) : 6 channels Channel positions : Front: L C R, Side: L R, LFE Sampling rate : 48.0 kHz Frame rate : 93.750 FPS (512 SPF) Bit depth : 24 bits Compression mode : Lossless / Lossy Stream size : 1.86 GiB (12%) Language : Russian Default : Yes Forced : No Text #1 ID : 3 Format : UTF-8 Codec ID : S_TEXT/UTF8 Codec ID/Info : UTF-8 Plain Text Duration : 1 h 6 min Bit rate : 1 b/s Count of elements : 10 Stream size : 807 Bytes (0%) Title : Forced (На французскую речь) Language : Russian Default : Yes Forced : Yes Text #2 ID : 4 Format : UTF-8 Codec ID : S_TEXT/UTF8 Codec ID/Info : UTF-8 Plain Text Duration : 1 h 15 min Bit rate : 41 b/s Count of elements : 291 Stream size : 22.8 KiB (0%) Title : Full Language : Russian Default : No Forced : No Text #3 ID : 5 Format : UTF-8 Codec ID : S_TEXT/UTF8 Codec ID/Info : UTF-8 Plain Text Duration : 1 h 21 min Bit rate : 30 b/s Count of elements : 535 Stream size : 17.9 KiB (0%) Title : Full Language : English Default : No Forced : No Menu 00:00:00.000 : :Chapter 01 00:03:06.228 : :Chapter 02 00:05:34.459 : :Chapter 03 00:10:38.137 : :Chapter 04 00:15:28.469 : :Chapter 05 00:20:37.278 : :Chapter 06 00:24:14.495 : :Chapter 07 00:30:19.651 : :Chapter 08 00:34:20.350 : :Chapter 09 00:37:59.819 : :Chapter 10 00:46:05.262 : :Chapter 11 01:01:58.089 : :Chapter 12 01:11:59.148 : :Chapter 13 01:17:52.543 : :Chapter 14 -------------------------------------------------------------- General Unique ID : 28704959088118018074840572181527338853 (0x15985FC02B5B0F9737D2E407D02B1F65) Complete name : War.and.Peace.Part.IV.Pierre.Bezukhov.1966.1080p.BDRemux.TeamHD.mkv Format : Matroska Format version : Version 4 / Version 2 File size : 18.0 GiB Duration : 1 h 36 min Overall bit rate mode : Variable Overall bit rate : 26.7 Mb/s Encoded date : UTC 2019-06-25 12:52:09 Writing application : mkvmerge v35.0.0 ('All The Love In The World') 64-bit Writing library : libebml v1.3.9 + libmatroska v1.5.2 Cover : Yes Attachments : cover.jpg Video ID : 1 Format : AVC Format/Info : Advanced Video Codec Format profile : High@L4.1 Format settings, CABAC : Yes Format settings, RefFrames : 4 frames Codec ID : V_MPEG4/ISO/AVC Duration : 1 h 36 min Bit rate mode : Variable Bit rate : 23.4 Mb/s Maximum bit rate : 37.0 Mb/s Width : 1 920 pixels Height : 1 080 pixels Display aspect ratio : 16:9 Frame rate mode : Constant Frame rate : 23.976 (24000/1001) FPS Color space : YUV Chroma subsampling : 4:2:0 Bit depth : 8 bits Scan type : Progressive Bits/(Pixel*Frame) : 0.470 Stream size : 15.8 GiB (88%) Title : BDRemux.1080p by Silverok Default : Yes Forced : No Audio ID : 2 Format : DTS Format/Info : Digital Theater Systems Format profile : MA / Core Mode : 16 Format settings, Endianness : Big Codec ID : A_DTS Duration : 1 h 36 min Bit rate mode : Variable / Constant Bit rate : 3 292 kb/s / 1 509 kb/s Channel(s) : 6 channels Channel positions : Front: L C R, Side: L R, LFE Sampling rate : 48.0 kHz Frame rate : 93.750 FPS (512 SPF) Bit depth : 24 bits Compression mode : Lossless / Lossy Stream size : 2.22 GiB (12%) Language : Russian Default : Yes Forced : No Text #1 ID : 3 Format : UTF-8 Codec ID : S_TEXT/UTF8 Codec ID/Info : UTF-8 Plain Text Duration : 1 h 16 min Bit rate : 15 b/s Count of elements : 137 Stream size : 8.97 KiB (0%) Title : Forced (На французскую речь) Language : Russian Default : Yes Forced : Yes Text #2 ID : 4 Format : UTF-8 Codec ID : S_TEXT/UTF8 Codec ID/Info : UTF-8 Plain Text Duration : 1 h 33 min Bit rate : 36 b/s Count of elements : 351 Stream size : 24.8 KiB (0%) Title : Full Language : Russian Default : No Forced : No Text #3 ID : 5 Format : UTF-8 Codec ID : S_TEXT/UTF8 Codec ID/Info : UTF-8 Plain Text Duration : 1 h 36 min Bit rate : 29 b/s Count of elements : 668 Stream size : 20.6 KiB (0%) Title : Full Language : English Default : No Forced : No Menu 00:00:00.000 : :Chapter 01 00:02:53.298 : :Chapter 02 00:06:07.450 : :Chapter 03 00:10:21.246 : :Chapter 04 00:17:04.232 : :Chapter 05 00:19:48.479 : :Chapter 06 00:22:29.890 : :Chapter 07 00:25:00.958 : :Chapter 08 00:36:34.359 : :Chapter 09 00:37:53.980 : :Chapter 10 00:45:25.556 : :Chapter 11 00:49:54.366 : :Chapter 12 00:58:41.435 : :Chapter 13 01:02:36.294 : :Chapter 14 01:08:43.661 : :Chapter 15 01:15:59.638 : :Chapter 16 01:19:29.682 : :Chapter 17 01:23:17.910 : :Chapter 18 01:25:21.366 : :Chapter 19 01:29:01.628 : :Chapter 20 01:31:23.186 : :Chapter 21
[+] Содержание:1-я серия. Андрей Болконский: Действие фильма, так же как и книги, начинается в 1805 году в Петербурге, в салоне фрейлины императрицы Анны Павловны Шерер, где встречаются главные герои — друзья князь Андрей Болконский и Пьер (Пётр) Безухов. Болконский собирается на войну, он хочет изменить надоевший ему образ жизни. Безухов, не определившийся в жизни молодой человек, коротает время в кутежах и пьянстве в компании молодёжи, которую собирают офицеры Долохов и Курагин. Безухов за недостойное поведение выслан из столицы в Москву, где на балу в доме Ростовых знакомится с дочерью графа Ростова — Наташей. Между тем умирает граф Кирилл Безухов. Наследником его немалого состояния неожиданно признают незаконного сына Пьера. До того бедный и безвестный дворянин становится первым женихом Москвы. Пьер знакомится с красавицей Элен, дочерью князя Курагина, и вскоре они женятся. Николай Ростов и Андрей Болконский принимают участие в военной кампании 1805 года. Болконский получает назначение в штаб и становится адъютантом Михаила Илларионовича Кутузова, а затем отправляется в действующую армию. Кампания завершается сражением при Аустерлице. Увлекая солдат в атаку, Болконский получает тяжёлое ранение, но остаётся жив. Домой, по ошибке, приходит сообщение о том, что он погиб смертью храбрых. Пьер Безухов между тем живёт светской жизнью. До него доходят слухи об измене жены с Долоховым. Безухов вызывает на дуэль и тяжело ранит Долохова. Пьер и Элен расходятся. Жена Болконского Лиза умирает во время родов. В эту же ночь к смертному одру супруги приезжает Болконский. Разочарованный в жизни Болконский тяжело переживает смерть супруги, уходит с армейской службы и уезжает из столицы в своё имение. Заканчивается зима. Болконский по делам посещает имение Ростовых, где встречается с повзрослевшей Наташей Ростовой. Болконский решает, что жизнь не кончилась в тридцать один год и возвращается в свет. 2-я серия. Наташа Ростова: 31 декабря 1809 года. Наташа Ростова выезжает на свой первый бал. Безухов просит Болконского пригласить Наташу на танец. Болконский влюбляется в юную графиню Ростову и после бала решает сделать ей предложение. Однако отец Болконского против и ставит свои условия: брак может состояться только через год. Тайно обручившись с Наташей, Андрей Болконский на год уезжает за границу. Ростовы отдыхают в своём имении Отрадном и выезжают на охоту. Наташа тоскует по Андрею. Наступает время праздников — святок, домой к Ростовым приходят ряженые. Наташа гадает, пытаясь узнать когда же вернётся её суженый. Она посещает старого князя Болконского, но тот отказывается обсуждать тему возвращения Андрея Болконского. Во время посещения оперы Ростова близко знакомится с Анатолем Курагиным, который без памяти влюбляется в Наташу. Признание Курагина вскружило голову Наташе и она, забыв обо всём, готова обручиться и бежать с ним, но в последний момент побег расстроился. Узнав о безобразном поступке Курагина, который был женат и знал об отношениях Наташи и Андрея, Пьер Безухов чуть не убивает его и требует, чтобы тот покинул столицу. Болконский, узнав об измене, называет Ростову падшей женщиной, и планы их совместной жизни расстроены. Пьер передаёт Наташе слова Болконского о разрыве и, пытаясь успокоить её, неожиданно сам признаётся ей в любви. 3-я серия. 1812 год: 1812 год. Войска Наполеона вторгаются в пределы России. Главнокомандующим, несмотря на разногласия в штабе, назначен Михаил Кутузов. Война подступает всё ближе, горит Смоленск. Старик Болконский тяжело переживает, отказывается верить в горькие известия о поражениях русской армии и умирает. Кутузов вызывает Андрея Болконского, предлагая ему службу при штабе, но Болконский просится в действующую армию и получает благословение Михаила Илларионовича. Безухов бросает столичный свет и тоже приезжает на место событий. Безухов и Болконский принимают участие в разворачивающейся Бородинской битве. Безухов оказывается в самом пекле сражения, на одной из артиллерийских батарей. Перед началом сражения полк, которым командовал Болконский, оказался в резерве. Так и не вступив в бой, Болконский получает тяжёлое ранение от разорвавшейся рядом гранаты и попадает в полевой лазарет. 4-я серия. Пьер Безухов: 1812 год. Осень. На военном совете по окончании Бородинского сражения Кутузов отдаёт приказ об отступлении, что открывает путь французским войскам на Москву. Семейство Ростовых, как и большинство москвичей, опасаясь наступающего противника, бежит из города. Пьер Безухов, переодевшись в крестьянское платье, остаётся в Москве. Войска императора Наполеона вступают в опустевший город. Безухов спасает от смерти французского офицера. Москва гибнет в страшном пожаре, Пьер чудом остаётся цел, оставшись невредимым после пожара и избегнув расстрела, как один из поджигателей. Ростовы эвакуируют умирающего Болконского в своё имение, где пережидают оккупацию. Болконский умирает на руках Наташи Ростовой и прощает ей всё содеянное. Как и рассчитывал Кутузов, войска Наполеона в условиях наступающей зимы вынуждены покинуть Москву и далее, преследуемые русскими войсками, и пределы России. Русская армия празднует победу. Минует зима, начинается лето. Безухов возвращается в отстраиваемую заново Москву и встречается с Наташей Ростовой. Фильм заканчивается словами: "А я говорю: возьмёмтесь рука с рукою те, которые любят добро, и пусть будет одно знамя — деятельная добродетель. Я хочу сказать только, что все мысли, которые имеют огромные последствия, — всегда просты. Вся моя мысль в том, что ежели люди порочные связаны между собой и составляют силу, то людям честным надо сделать только то же самое. Ведь как просто".
[+] Скриншоты

Всего файлов в раздаче: 4 
War.and.Peace.Part.I.Andrei.Bolkonsky.1966.1080p.BDRemux.TeamHD.mkv24.28 GB
War.and.Peace.Part.II.Natasha.Rostova.1966.1080p.BDRemux.TeamHD.mkv15.38 GB
War.and.Peace.Part.III.The.Year.1812.1966.1080p.BDRemux.TeamHD.mkv15.51 GB
War.and.Peace.Part.IV.Pierre.Bezukhov.1966.1080p.BDRemux.TeamHD.mkv18.01 GB

Похожие раздачи по запросу - Война
2024-02-12 magnet Константин Залесский - Великая Отечественная война. Большая биографическая энциклопедия (2013) FB2 32.03 MB ↑ 0 ↓ 0
2024-02-12 magnet Андрей Булычев - Егерь императрицы 11. Война на Дунае (2023) MP3 499.21 MB ↑ 0 ↓ 0
2024-02-08 magnet Война и мир (1965-1967) BDRip 1080p | Criterion Collection 1К38.32 GB ↑ 0 ↓ 0
2024-02-06 magnet Карел Чапек - Война с саламандрами (2024) MP3 584.03 MB ↑ 0 ↓ 0
2024-02-03 magnet Своя война. Шторм в пустыне (2022) HDRip-AVC от DoMiNo 1.70 GB ↑ 0 ↓ 0
2024-02-02 magnet Своя война. Шторм в пустыне (2022) BDRip 1080p от ExKinoRay 7.90 GB ↑ 0 ↓ 0
2024-02-01 magnet Война и мир / War and Peace (1956) BDRip 1080p | D, P 21.24 GB ↑ 0 ↓ 0

Комментарии


Зарегистрируйтесь чтобы добавить комментарий
Торрент клиент
byTorrent - программа для загрузки торрент-файлов.

Скачать byTorrent.exe (1,5 МБ)

Скачать byTorrent.zip (0,6 МБ)

Поддержи torrent.by
российских рублей
(300 российских рублей это 4$)

Обратная связь rss

End game ©